Профиль убийцы / Profile of a Killer (2012) HDTVRip 720p от MediaClub | P2

 
Автор Сообщение

sergej644 ®

Пол:

Стаж: 4 года 11 месяцев

Сообщений: 6044

Откуда: Soviet Union



Награды: Нет

Торрент-статистика

Создавать темы 11-Фев-2015 12:24

[Цитировать]

Информация о фильме
Название: Профиль убийцы
Оригинальное название: Profile of a Killer
Год выхода: 2012
Жанр: Tриллер
Режиссер: Кэспиан Тредуэлл-Оуэн
В ролях: Джои Поллари, Эмили Фраденбург, Дастин Бут, Кен Мельхиор, Чандра Майклс, Софи Элиз Бристер, Крис Карлсон, Кирстен Грегерсон, Роберт Ларсен
О фильме:
Холодные воды реки выносят на берег 4 человеческих скелета. Результаты экспертизы свидетельствуют о том, что жертвы убиты недавно. Полиция начинает расследование и приглашает в помощь психолога из ФБР – всем ясно, что «работает» маньяк.

Страна: США
Студия: Metamorphosis Make-Up Artistry
Продолжительность: 01:31:51
Перевод: Профессиональный двухголосый (НТВ+)
Файл
Кодек: MPEG-4 AVC
Качество: HDTVRip 720p
Видео: 3200 Кбит/с, 1280x720, 25.000 кадр/с
Звук: Русский (АС3, 6 ch, 448 Кбит/с)
Семпл

Скриншоты

MI

Общее
Полное имя : Profil.ubijcy.2012.x264.HDTVRip(720p).MediaClub.mkv
Формат : Matroska
Версия формата : Version 2
Размер файла : 2,34 Гбайт
Продолжительность : 1 ч. 31 м.
Общий поток : 3649 Кбит/сек
Дата кодирования : UTC 2014-10-19 09:24:29
Программа кодирования : mkvmerge v5.8.0 ('No Sleep / Pillow') built on Sep 2 2012 15:37:04
Библиотека кодирования : libebml v1.2.3 + libmatroska v1.3.0
Видео
Идентификатор : 1
Формат : AVC
Формат/Информация : Advanced Video Codec
Профиль формата : High@L4.1
Параметр CABAC формата : Да
Параметр ReFrames формата : 9 кадров
Идентификатор кодека : V_MPEG4/ISO/AVC
Продолжительность : 1 ч. 31 м.
Битрейт : 3200 Кбит/сек
Ширина : 1280 пикселей
Высота : 720 пикселей
Соотношение сторон : 16:9
Режим частоты кадров : Постоянный
Частота кадров : 25,000 кадров/сек
Цветовое пространство : YUV
Субдискретизация насыщенности : 4:2:0
Битовая глубина : 8 бит
Тип развёртки : Прогрессивная
Бит/(Пиксели*Кадры) : 0.139
Размер потока : 2,01 Гбайт (86%)
Библиотека кодирования : x264 core 125 r2208 d9d2288
Настройки программы : cabac=1 / ref=9 / deblock=1:-3:-2 / analyse=0x3:0x133 / me=umh / subme=10 / psy=1 / psy_rd=1.00:0.20 / mixed_ref=1 / me_range=48 / chroma_me=1 / trellis=2 / 8x8dct=1 / cqm=0 / deadzone=21,11 / fast_pskip=0 / chroma_qp_offset=-3 / threads=6 / lookahead_threads=1 / sliced_threads=0 / nr=0 / decimate=0 / interlaced=0 / bluray_compat=0 / constrained_intra=0 / bframes=8 / b_pyramid=2 / b_adapt=2 / b_bias=0 / direct=3 / weightb=1 / open_gop=0 / weightp=2 / keyint=250 / keyint_min=25 / scenecut=40 / intra_refresh=0 / rc=2pass / mbtree=0 / bitrate=3200 / ratetol=1.0 / qcomp=0.60 / qpmin=0 / qpmax=69 / qpstep=4 / cplxblur=20.0 / qblur=0.5 / ip_ratio=1.40 / pb_ratio=1.30 / aq=1:1.00
Default : Да
Forced : Нет
Аудио
Идентификатор : 2
Формат : AC-3
Формат/Информация : Audio Coding 3
Расширение режима : CM (complete main)
Параметр Endianness формата : Big
Идентификатор кодека : A_AC3
Продолжительность : 1 ч. 31 м.
Вид битрейта : Постоянный
Битрейт : 448 Кбит/сек
Каналы : 6 каналов
Расположение каналов : Front: L C R, Side: L R, LFE
Частота : 48,0 КГц
Битовая глубина : 16 бит
Метод сжатия : С потерями
Размер потока : 294 Мбайт (12%)
Default : Да
Forced : Нет
[Профиль] [ЛС]
Показать сообщения:    

Текущее время: Сегодня 10:08

Часовой пояс: GMT



Вы не можете начинать темы
Вы не можете отвечать на сообщения
Вы не можете редактировать свои сообщения
Вы не можете удалять свои сообщения
Вы не можете голосовать в опросах
Вы не можете прикреплять файлы к сообщениям
Вы не можете скачивать файлы