Профессионал [01-16 из 16] (2014) HDTV 1080i

 
Автор Сообщение

достали все ®

Пол:

Стаж: 1 год 8 месяцев

Сообщений: 6565



Награды: 12 (Подробнее)

За внесенный вклад в развитие сайта (Количество: 1) Mega Seeder 4 (Количество: 1) Top Releaser 4 (Количество: 1)
Торрент-статистика

Создавать темы 24-Мар-2016 22:44

[Цитировать]

Информация о фильме
Оригинальное название: Профессионал
Год выхода: 2014
Жанр: Боевик
Режиссер: Алан Дзоциев
В ролях: Алексей Лобанов, Константин Стрельников, Игорь Лагутин, Евгения Игумнова, Сергей Юшкевич, Андрей Горбачёв, Юрий Батурин, Анатолий Лобоцкий, Мария Решавская, Владимир Артемов, Валерий Баринов, Сергей Жигунов, Юрий Ицков, Михаил Черняк, Александр Марушев, Сергей Амосов, Руслан Барабанов, Анатолий Ильченко, Алексей Федотов, Руслан Кацагаджиев
О фильме:
Сбежав из тюрьмы в Джакарте, где он провёл в заключении долгих четырнадцать лет, разведчик Андрей Зубов возвращается на родину, чтобы найти причины провала своей опергруппы и наказать виновников гибели жены. Преодолев тысячи километров, Зубов вынужден столкнуться с новым предательством, он становится объектом преследования своих бывших коллег, среди которых многие заинтересованы в том, чтобы он замолчал и исчез навсегда. Но, благодаря помощи новых и старых друзей, ему всё-таки удаётся невозможное - настоящий профессионал в своём деле, Зубов вступает в борьбу с преступной системой и побеждает её. Но многие вопросы, мучающие Андрея, так и остаются без ответа...
Страна: Россия
Студия: Студия "Панорама"
Продолжительность: 16 x ~ 00:45:00
Перевод: Не требуется
Файл
Качество: HDTV (1080i)
Видео: MPEG-4 AVC, ~ 6.1 Mбит/с, 1920x1080
Аудио: MP2, 2 ch, 192 Кбит/с

МедиаИнфо

Общее
Идентификатор : 1 (0x1)
Полное имя : Professional.2014.HDTV.1080i.by.GeneralFilmSerija.01.ts
Формат : MPEG-TS
Размер файла : 2,05 Гбайт
Продолжительность : 44 м.
Режим общего битрейта : Переменный
Общий поток : 6644 Кбит/сек
Видео
Идентификатор : 201 (0xC9)
Идентификатор меню : 2201 (0x899)
Формат : AVC
Формат/Информация : Advanced Video Codec
Профиль формата : High@L4
Параметр CABAC формата : Да
Параметр ReFrames формата : 4 кадра
Идентификатор кодека : 27
Продолжительность : 44 м.
Битрейт : 6121 Кбит/сек
Ширина : 1920 пикселей
Высота : 1080 пикселей
Соотношение сторон : 16:9
Частота кадров : 25,000 кадров/сек
Стандарт вещания : Component
Цветовое пространство : YUV
Субдискретизация насыщенности : 4:2:0
Битовая глубина : 8 бит
Тип развёртки : Чересстрочная
Метод сохранения типа развёртки : Раздельные поля
Порядок развёртки : Верхнее поле первое
Бит/(Пиксели*Кадры) : 0.118
Размер потока : 1,89 Гбайт (92%)
Цветовой диапазон : Limited
Основные цвета : BT.709
Характеристики трансфера : BT.709
Коэффициенты матрицы : BT.709
Аудио
Идентификатор : 301 (0x12D)
Идентификатор меню : 2201 (0x899)
Формат : MPEG Audio
Версия формата : Version 1
Профиль формата : Layer 2
Идентификатор кодека : 3
Продолжительность : 44 м.
Вид битрейта : Постоянный
Битрейт : 192 Кбит/сек
Каналы : 2 канала
Частота : 48,0 КГц
Метод сжатия : С потерями
Задержка видео : -40 мс.
Размер потока : 60,7 Мбайт (3%)
Язык : English

Скриншоты



Релиз от:
[Профиль] [ЛС]
Кто просматривает тему:

Форум Тема Автор Размер
Apple Mac OS X (ОС и ПО) Pho.to Lab PRO HD - Профессиональный редактор для фотографий. [2.2.7, Фото, iOS 5.0, RUS] reversefile 11 MB
Программы для архитекторов и дизайнеров интерьеров PRO100 5.20 + Профессиональная Библиотека 1.2 (2013) PC sergej644 680 MB
Windows 8 Windows 8.1 Профессиональная (x64) by SLO94 v.12.01.2016 [Ru] sergej644 4.84 GB
Windows 8 Windows 8.1 Профессиональная by SLO94 v.11.12.15 (x64) [Ru] (2015) sergej644 5.54 GB
Windows 8 Windows 8.1 Профессиональная by SLO94 v.12.12.2015 (x86) [Ru] (2015) sergej644 3.95 GB
Компьютерная литература (Программирование) Библиотека профессионала - Несен А.В. - Microsoft Word 2010. От новичка к профессионалу [2011, PDF, RUS] TorrentFilm 26 MB
Компьютерная литература (Программирование) Данкан Р. - Профессиональная работа в MS-DOS [1993, DjVu, RUS] TorrentFilm 8 MB
Компьютерная литература (Программирование) Для профессионалов - Richter J. / Рихтер Дж. - Programming Applications for Microsoft Windows / Windows. Создание эффективных Win32-приложений с учётом специфики 64-разрядной версии Windows... TorrentFilm 98 MB
Показать сообщения:    

Текущее время: Сегодня 18:15

Часовой пояс: GMT



Вы не можете начинать темы
Вы не можете отвечать на сообщения
Вы не можете редактировать свои сообщения
Вы не можете удалять свои сообщения
Вы не можете голосовать в опросах
Вы не можете прикреплять файлы к сообщениям
Вы не можете скачивать файлы