Профессионал [01-16 из 16] (2014) WEBRip

 
Автор Сообщение

достали все ®

Пол:

Стаж: 1 год 8 месяцев

Сообщений: 6570



Награды: 12 (Подробнее)

Mega Releaser 2 (Количество: 1) Mega Seeder 1 (Количество: 1) Mega Seeder 5 (Количество: 1)
Торрент-статистика

Создавать темы 16-Янв-2016 12:43

[Цитировать]

Название: Профессионал
Год выпуска: 2014
Производство: Россия,Студия "Панорама", "Форвард-Фильм"
Жанр: Детектив, криминал
Продолжительность: 16 x ~ 00:47:00
Режиссёр: Алан Дзоциев
В ролях: Алексей Лобанов (II), Константин Стрельников, Игорь Лагутин, Евгения Игумнова, Сергей Юшкевич, Андрей Горбачёв, Юрий Батурин, Анатолий Лобоцкий, Мария Решавская, Владимир Артёмов, Валерий Баринов, Сергей Жигунов, Юрий Ицков, Михаил Черняк, Александр Марушев, Сергей Амосов, Руслан Барабанов, Анатолий Ильченко, Алексей Федотов, Руслан Кацагаджиев, Стэнли Красовицки, Владимир Бирюков, Александр Иванов (XVII), Роман Жилкин, Борис Хасанов, Александр Голубков (II)
Описание: Сбежав из тюрьмы в Джакарте, где он провёл в заключении долгих четырнадцать лет, разведчик Андрей Зубов возвращается на родину, чтобы найти причины провала своей опергруппы и наказать виновников гибели жены. Преодолев тысячи километров, Зубов вынужден столкнуться с новым предательством, он становится объектом преследования своих бывших коллег, среди которых многие заинтересованы в том, чтобы он замолчал и исчез навсегда. Но, благодаря помощи новых и старых друзей, ему всё-таки удаётся невозможное - настоящий профессионал в своём деле, Зубов вступает в борьбу с преступной системой и побеждает её. Но многие вопросы, мучающие Андрея, так и остаются без ответа...

Качество: WEBRip by (WEB-DL 720p)
Формат: AVI
Видео кодек: XviD
Аудио кодек: AC3
Видео: MPEG4, XviD, 720x400 (16:9), 25.000 fps, 1 483 Kbps (0.206 bit/pixel)
Аудио: AC-3, 48.0 KHz, 2 ch, 192 Kbps
Субтитры: Нет

MediaInfo


Общее
Полное имя : D:Мои фильмыProfessional_01-16iz16_2014_XviD_WEBRipProfessional_01_2014_WEBRip.avi
Формат : AVI
Формат/Информация : Audio Video Interleave
Размер файла : 555 Мбайт
Продолжительность : 46 м.
Общий поток : 1685 Кбит/сек
Библиотека кодирования : VirtualDub build 35491/release
Видео
Идентификатор : 0
Формат : MPEG-4 Visual
Профиль формата : Advanced Simple@L5
Параметр BVOP формата : 2
Параметр QPel формата : Нет
Параметр GMC формата : Без точки перехода
Параметр матрицы формата : Default (H.263)
Идентификатор кодека : XVID
Идентификатор кодека/Подсказка : XviD
Продолжительность : 46 м.
Битрейт : 1483 Кбит/сек
Ширина : 720 пикселей
Высота : 400 пикселей
Соотношение сторон : 16:9
Частота кадров : 25,000 кадров/сек
Цветовое пространство : YUV
Субдискретизация насыщенности : 4:2:0
Битовая глубина : 8 бит
Тип развёртки : Прогрессивная
Метод сжатия : С потерями
Бит/(Пиксели*Кадры) : 0.206
Размер потока : 489 Мбайт (88%)
Библиотека кодирования : XviD 67
Аудио
Идентификатор : 1
Формат : AC-3
Формат/Информация : Audio Coding 3
Расширение режима : CM (complete main)
Параметр Endianness формата : Big
Идентификатор кодека : 2000
Продолжительность : 46 м.
Вид битрейта : Постоянный
Битрейт : 192 Кбит/сек
Каналы : 2 канала
Расположение каналов : Front: L R
Частота : 48,0 КГц
Частота кадров : 31,250 кадров/сек (1536 spf)
Метод сжатия : С потерями
Размер потока : 63,3 Мбайт (11%)
Выравнивание : Соединение по промежуткам
Продолжительность промежутка : 40 мс. (1,00 видеокадр)
Время предзагрузки промежутка : 512 мс.

Скриншоты

[Профиль] [ЛС]
Кто просматривает тему:

Форум Тема Автор Размер
Apple Mac OS X (ОС и ПО) Pho.to Lab PRO HD - Профессиональный редактор для фотографий. [2.2.7, Фото, iOS 5.0, RUS] reversefile 11 MB
Программы для архитекторов и дизайнеров интерьеров PRO100 5.20 + Профессиональная Библиотека 1.2 (2013) PC sergej644 680 MB
Windows 8 Windows 8.1 Профессиональная (x64) by SLO94 v.12.01.2016 [Ru] sergej644 4.84 GB
Windows 8 Windows 8.1 Профессиональная by SLO94 v.11.12.15 (x64) [Ru] (2015) sergej644 5.54 GB
Windows 8 Windows 8.1 Профессиональная by SLO94 v.12.12.2015 (x86) [Ru] (2015) sergej644 3.95 GB
Компьютерная литература (Программирование) Библиотека профессионала - Несен А.В. - Microsoft Word 2010. От новичка к профессионалу [2011, PDF, RUS] TorrentFilm 26 MB
Компьютерная литература (Программирование) Данкан Р. - Профессиональная работа в MS-DOS [1993, DjVu, RUS] TorrentFilm 8 MB
Компьютерная литература (Программирование) Для профессионалов - Richter J. / Рихтер Дж. - Programming Applications for Microsoft Windows / Windows. Создание эффективных Win32-приложений с учётом специфики 64-разрядной версии Windows... TorrentFilm 98 MB
Показать сообщения:    

Текущее время: Сегодня 12:47

Часовой пояс: GMT



Вы не можете начинать темы
Вы не можете отвечать на сообщения
Вы не можете редактировать свои сообщения
Вы не можете удалять свои сообщения
Вы не можете голосовать в опросах
Вы не можете прикреплять файлы к сообщениям
Вы не можете скачивать файлы