Профессионал / Le professionnel (1981) BDRip 720p от denis 100

 
Автор Сообщение

Russian Mafia ®

Пол:

Стаж: 1 год 8 месяцев

Сообщений: 4260



Награды: 10 (Подробнее)

Top Releaser 4 (Количество: 1) Mega Seeder 2 (Количество: 1) Mega Seeder 3 (Количество: 1)
Торрент-статистика

Создавать темы 03-Сен-2015 09:52

[Цитировать]

Информация о фильме
Название: Профессионал
Оригинальное название: Le professionnel
Год выпуска: 1981
Жанр: Боевик, триллер, драма, криминал, экранизация, гангстерский
Выпущено: Франция, Cerito Films, Les Films Ariane
Режиссер: Жорж Лотнер
Композитор: Эннио Морриконе
В ролях: Жан-Поль Бельмондо, Жан Дезайи, Робер Оссейн, Мишель Бон, Сирьель Клер, Жан-Луи Ришар, Пьер Сентон, Мари-Кристин Декуар, Бернар–Пьер Доннадьё, Элизабет Маргони, Сидики Бакаба, Пьер Вернье, Морис Озель, Баарон, Мишель Беррер, Жан-Клод Буйо, Даниель Бретон, Жерар Даррье, Серж Нубре, Шейк Дукуре, Пьер Форже, Марк Ламоль, Ги Мересс, Жюльен Буковски, Паскаль Н`Зонзи, Жак Канселье, Клод-Бернар Перо, Ив Пиньо, Андре Вебер, Дэни Коган, Беате Копп
Перевод: Дублированный, профессиональный многоголосый, авторский
Сюжет фильма
Экранизация романа Патрика Александера "Mort d'une bête à la peau fragile" ("Смерть зверя с нежной кожей"). Французский секретный агент Жослен Бомон заброшен в одну из африканских стран с заданием убить её президента — диктатора Нджалу. Однако в самый последний момент политическая ситуация резко меняется. Нджала становится желательным партнёром для французского правительства. Для улучшения отношений с Нджалой секретная служба не отзывает Бомона, а сдаёт его африканцам; его приговаривают к длительному сроку заключения. Поклявшись отомстить, Бомон совершает дерзкий побег и отправляет своим боссам короткое и простое сообщение. Он возвращается во Францию и собирается завершить свою миссию — в течение 48 часов убить Нджалу, приехавшего в страну с официальным визитом. Но для этого Бомон должен проникнуть сквозь многочисленные заслоны из телохранителей, окружающих президента. Он действует в одиночку и полон решимости показать всему миру, что такое настоящий профессионал.

Файл
Качество: BDRip 1080p (исходник Blu-ray)
Видео: 1204х720, 5 540 Кбит/сек, 24.000 кадр/сек, AVC, x264, High@L4.1, 0.266 Бит/[Пиксели*Кадры], 2pass
Аудио 1: AC3 2.0 48 kHz 192 kbps - Многоголосый закадровый, к.ст им. Горького
Аудио 2: AC3 2.0 48 kHz 256 kbps - Дублированный, Мосфильм - по умолчанию
Аудио 3: AC3 2.0 48 kHz 192 kbps - Многоголосый закадровый, НТВ, Караченцов
Аудио 4: AC3 2.0 48 kHz 192 kbps - Многоголосый закадровый, Неоклассика
Аудио 5: AC3 2.0 48 kHz 192 kbps - Многоголосый закадровый, Тивионика
Аудио 6: AC3 2.0 48 kHz 192 kbps - Одноголосый закадровый, Л.Володарский
Аудио 7: AC3 2.0 48 kHz 192 kbps - Одноголосый закадровый, П.Прямостанов
Аудио 8: AC3 2.0 48 kHz 256 kbps - Одноголосый закадровый, С.Кузнецов
Аудио 9: AC3 2.0 48 kHz 192 kbps - Многоголосый закадровый Украинский
Аудио 10: AC3 2.0 48 kHz 254 kbps - French
Продолжительность: 01:47:53
Чаптеры: есть
Субтитры: русскиеАвтор Рипа:

Скриншоты

MediaInfo

Format : Matroska
Format version : Version 2
File size : 5.75 GiB
Duration : 1h 47mn
Overall bit rate : 7 620 Kbps
Encoded date : UTC 2014-01-18 09:08:04
Writing application : mkvmerge v5.8.0 ('No Sleep / Pillow') built on Sep 2 2012 15:37:04
Writing library : libebml v1.2.3 + libmatroska v1.3.0
Video
ID : 1
Format : AVC
Format/Info : Advanced Video Codec
Format profile : High@L4.1
Format settings, CABAC : Yes
Format settings, ReFrames : 9 frames
Codec ID : V_MPEG4/ISO/AVC
Duration : 1h 47mn
Bit rate : 5 540 Kbps
Width : 1 204 pixels
Height : 720 pixels
Display aspect ratio : 1.672
Frame rate mode : Constant
Frame rate : 24.000 fps
Color space : YUV
Chroma subsampling : 4:2:0
Bit depth : 8 bits
Scan type : Progressive
Bits/(Pixel*Frame) : 0.266
Stream size : 4.06 GiB (71%)
Title : Professional.(1981).BDRip.720p от _denis_100
Writing library : x264 core 140 r2377 1ca7bb9
Encoding settings : cabac=1 / ref=9 / deblock=1:-3:-3 / analyse=0x3:0x133 / me=umh / subme=11 / psy=1 / psy_rd=1.00:0.10 / mixed_ref=1 / me_range=64 / chroma_me=1 / trellis=2 / 8x8dct=1 / cqm=0 / deadzone=21,11 / fast_pskip=0 / chroma_qp_offset=-3 / threads=6 / lookahead_threads=1 / sliced_threads=0 / nr=0 / decimate=0 / interlaced=0 / bluray_compat=0 / constrained_intra=0 / bframes=8 / b_pyramid=2 / b_adapt=2 / b_bias=0 / direct=3 / weightb=1 / open_gop=0 / weightp=2 / keyint=250 / keyint_min=24 / scenecut=40 / intra_refresh=0 / rc=2pass / mbtree=0 / bitrate=5540 / ratetol=1.0 / qcomp=0.60 / qpmin=0 / qpmax=69 / qpstep=4 / cplxblur=20.0 / qblur=0.5 / ip_ratio=1.40 / pb_ratio=1.30 / aq=1:0.80
Language : English
Default : Yes
Forced : No
Audio #1
ID : 2
Format : AC-3
Format/Info : Audio Coding 3
Mode extension : CM (complete main)
Format settings, Endianness : Big
Codec ID : A_AC3
Duration : 1h 47mn
Bit rate mode : Constant
Bit rate : 192 Kbps
Channel count : 2 channels
Channel positions : Front: L R
Sampling rate : 48.0 KHz
Bit depth : 16 bits
Compression mode : Lossy
Stream size : 148 MiB (3%)
Title : Многоголосый закадровый, к.ст им. Горького
Language : Russian
Default : No
Forced : No
Audio #2
ID : 3
Format : AC-3
Format/Info : Audio Coding 3
Mode extension : CM (complete main)
Format settings, Endianness : Big
Codec ID : A_AC3
Duration : 1h 47mn
Bit rate mode : Constant
Bit rate : 256 Kbps
Channel count : 2 channels
Channel positions : Front: L R
Sampling rate : 48.0 KHz
Bit depth : 16 bits
Compression mode : Lossy
Stream size : 198 MiB (3%)
Title : Дублированный, Мосфильм
Language : Russian
Default : Yes
Forced : No
Audio #3
ID : 4
Format : AC-3
Format/Info : Audio Coding 3
Mode extension : CM (complete main)
Format settings, Endianness : Big
Codec ID : A_AC3
Duration : 1h 47mn
Bit rate mode : Constant
Bit rate : 192 Kbps
Channel count : 2 channels
Channel positions : Front: L R
Sampling rate : 48.0 KHz
Bit depth : 16 bits
Compression mode : Lossy
Stream size : 148 MiB (3%)
Title : Многоголосый закадровый, НТВ, Караченцов
Language : Russian
Default : No
Forced : No
Audio #4
ID : 5
Format : AC-3
Format/Info : Audio Coding 3
Mode extension : CM (complete main)
Format settings, Endianness : Big
Codec ID : A_AC3
Duration : 1h 47mn
Bit rate mode : Constant
Bit rate : 192 Kbps
Channel count : 2 channels
Channel positions : Front: L R
Sampling rate : 48.0 KHz
Bit depth : 16 bits
Compression mode : Lossy
Stream size : 148 MiB (3%)
Title : Многоголосый закадровый, Неоклассика
Language : Russian
Default : No
Forced : No
Audio #5
ID : 6
Format : AC-3
Format/Info : Audio Coding 3
Mode extension : CM (complete main)
Format settings, Endianness : Big
Codec ID : A_AC3
Duration : 1h 47mn
Bit rate mode : Constant
Bit rate : 192 Kbps
Channel count : 2 channels
Channel positions : Front: L R
Sampling rate : 48.0 KHz
Bit depth : 16 bits
Compression mode : Lossy
Stream size : 148 MiB (3%)
Title : Многоголосый закадровый, Тивионика
Language : Russian
Default : No
Forced : No
Audio #6
ID : 7
Format : AC-3
Format/Info : Audio Coding 3
Mode extension : CM (complete main)
Format settings, Endianness : Big
Codec ID : A_AC3
Duration : 1h 47mn
Bit rate mode : Constant
Bit rate : 192 Kbps
Channel count : 2 channels
Channel positions : Front: L R
Sampling rate : 48.0 KHz
Bit depth : 16 bits
Compression mode : Lossy
Stream size : 148 MiB (3%)
Title : Одноголосый закадровый, Л.Володарский
Language : Russian
Default : No
Forced : No
Audio #7
ID : 8
Format : AC-3
Format/Info : Audio Coding 3
Mode extension : CM (complete main)
Format settings, Endianness : Big
Codec ID : A_AC3
Duration : 1h 47mn
Bit rate mode : Constant
Bit rate : 192 Kbps
Channel count : 2 channels
Channel positions : Front: L R
Sampling rate : 48.0 KHz
Bit depth : 16 bits
Compression mode : Lossy
Stream size : 148 MiB (3%)
Title : Одноголосый закадровый, П.Прямостанов
Language : Russian
Default : No
Forced : No
Audio #8
ID : 9
Format : AC-3
Format/Info : Audio Coding 3
Mode extension : CM (complete main)
Format settings, Endianness : Big
Codec ID : A_AC3
Duration : 1h 47mn
Bit rate mode : Constant
Bit rate : 256 Kbps
Channel count : 2 channels
Channel positions : Front: L R
Sampling rate : 48.0 KHz
Bit depth : 16 bits
Compression mode : Lossy
Stream size : 198 MiB (3%)
Title : Одноголосый закадровый, С.Кузнецов
Language : Russian
Default : No
Forced : No
Audio #9
ID : 10
Format : AC-3
Format/Info : Audio Coding 3
Mode extension : CM (complete main)
Format settings, Endianness : Big
Codec ID : A_AC3
Duration : 1h 47mn
Bit rate mode : Constant
Bit rate : 192 Kbps
Channel count : 2 channels
Channel positions : Front: L R
Sampling rate : 48.0 KHz
Bit depth : 16 bits
Compression mode : Lossy
Stream size : 148 MiB (3%)
Title : Многоголосый закадровый
Language : Ukrainian
Default : No
Forced : No
Audio #10
ID : 11
Format : AC-3
Format/Info : Audio Coding 3
Mode extension : CM (complete main)
Format settings, Endianness : Big
Codec ID : A_AC3
Duration : 1h 47mn
Bit rate mode : Constant
Bit rate : 224 Kbps
Channel count : 2 channels
Channel positions : Front: L R
Sampling rate : 48.0 KHz
Bit depth : 16 bits
Compression mode : Lossy
Stream size : 173 MiB (3%)
Title : French
Language : French
Default : No
Forced : No
Text
ID : 12
Format : UTF-8
Codec ID : S_TEXT/UTF8
Codec ID/Info : UTF-8 Plain Text
Title : русские
Language : Russian
Default : No
Forced : No
Menu
00:00:00.000 : en:00:00:00.000
00:12:39.958 : en:00:12:39.958
00:28:55.250 : en:00:28:55.250
00:41:54.625 : en:00:41:54.625
00:54:46.417 : en:00:54:46.417
01:06:59.000 : en:01:06:59.000
01:21:16.667 : en:01:21:16.667
01:33:52.500 : en:01:33:52.500

x264

x264 [info]: frame I:1020 Avg QP:18.32 size:142419
x264 [info]: frame P:32041 Avg QP:20.96 size: 52773
x264 [info]: frame B:122291 Avg QP:22.65 size: 21638
[Профиль] [ЛС]
Кто просматривает тему:

Форум Тема Автор Размер
Apple Mac OS X (ОС и ПО) Pho.to Lab PRO HD - Профессиональный редактор для фотографий. [2.2.7, Фото, iOS 5.0, RUS] reversefile 11 MB
Программы для архитекторов и дизайнеров интерьеров PRO100 5.20 + Профессиональная Библиотека 1.2 (2013) PC sergej644 680 MB
Windows 8 Windows 8.1 Профессиональная (x64) by SLO94 v.12.01.2016 [Ru] sergej644 4.84 GB
Windows 8 Windows 8.1 Профессиональная by SLO94 v.11.12.15 (x64) [Ru] (2015) sergej644 5.54 GB
Windows 8 Windows 8.1 Профессиональная by SLO94 v.12.12.2015 (x86) [Ru] (2015) sergej644 3.95 GB
Компьютерная литература (Программирование) Библиотека профессионала - Несен А.В. - Microsoft Word 2010. От новичка к профессионалу [2011, PDF, RUS] TorrentFilm 26 MB
Компьютерная литература (Программирование) Данкан Р. - Профессиональная работа в MS-DOS [1993, DjVu, RUS] TorrentFilm 8 MB
Компьютерная литература (Программирование) Для профессионалов - Richter J. / Рихтер Дж. - Programming Applications for Microsoft Windows / Windows. Создание эффективных Win32-приложений с учётом специфики 64-разрядной версии Windows... TorrentFilm 98 MB
Показать сообщения:    

Текущее время: Сегодня 12:10

Часовой пояс: GMT



Вы не можете начинать темы
Вы не можете отвечать на сообщения
Вы не можете редактировать свои сообщения
Вы не можете удалять свои сообщения
Вы не можете голосовать в опросах
Вы не можете прикреплять файлы к сообщениям
Вы не можете скачивать файлы