Против природы / Against the Wild (Ричард Боддингтон / Richard Boddington) [2014, Канада, приключения, семейный, драма, WEB-DLRip] VO (R.A.I.M)+ Original (Eng) + Sub Rus (adamovna)

 
Автор Сообщение

Создавать темы 13-Июл-2014 16:38

Против природы
-----------------------------------------------------------
Against the Wild
-- Страна: Канада
Жанр: Приключения, семейный, драма
Продолжительность: 01:32:26
Год выпуска: 2014
Перевод: : Одноголосый закадровый (R.A.I.M)
Оригинальная аудиодорожка:: Английский
Субтитры: Русские (adamovna), английские (SRT)--Режиссёр: Ричард Боддингтон / Richard Boddington--В ролях: С.Дж. Адамс / CJ Adams, Эрин Питт/ Erin Pitt, Наташа Хенстридж / Natasha Henstridge, Тед Уиттэлл / Ted Whittall, Джон Тенч / John Tench, Рейнбоу Фрэнкс / Rainbow Francks, Грег Кэмпбелл / Greg Campbell, Сара Дикинс/ Sarah Deakins, Дженнифер Гибсон / Jennifer Gibson-Описание: Брат с сестрой и их преданный пес - аляскинский маламут - после авиационной катастрофы оказываются в той части Аляски, где царят первозданная красота и природная жестокость. Спасатели отправляются на их поиски, родители страшно переживают за своих детей. Но пока придет помощь, пройдет немало времени. Им придется объединить все свои навыки, забыть прежние обиды и научиться доверять друг другу, чтобы вырваться из этого плена. --Доп. информация:
Релиз для IMDb: 5,0 (322) СЭМПЛ http://multi-up.com/975154-Альтернативные раздачи:
Против природы / Against the Wild (2014) (WEB-DL 1080p) MKV - 3,45 Gb--Качество: WEB-DLRip
Формат: avi
Видео: XviD, 1 910 Kbps, 720 x 400, 16:9, 23.976 fps
Аудио1: AC3, 2 ch, 192 kbps, 48 kHz | VO (R.A.I.M)
Аудио2: AC3, 2 ch, 192 kbps, 48 kHz | Английский, оригинал |
Формат субтитров: Русские, английские (SRT)-

Сравнение скриншотов

с этой раздачей: http://torrentfilm.net/forum/viewtopic.php?t=4742480
сравнение: http://screenshotcomparison.com/comparison/75791

MediaInfo

General
Complete name : Against the Wild (2014).avi
Format : AVI
Format/Info : Audio Video Interleave
File size : 1.49 GiB
Duration : 1h 32mn
Overall bit rate : 2 308 Kbps
Writing application : VirtualDubMod 1.5.10.2 (build 2542/release)
Writing library : VirtualDubMod build 2542/release
Video #0
ID : 0
Format : MPEG-4 Visual
Format profile : Advanced Simple@L5
Format settings, BVOP : 2
Format settings, QPel : No
Format settings, GMC : No warppoints
Format settings, Matrix : Custom
Codec ID : XVID
Codec ID/Hint : XviD
Duration : 1h 32mn
Bit rate : 1 910 Kbps
Width : 720 pixels
Height : 400 pixels
Display aspect ratio : 16:9
Frame rate : 23.976 fps
Color space : YUV
Chroma subsampling : 4:2:0
Bit depth : 8 bits
Scan type : Progressive
Compression mode : Lossy
Bits/(Pixel*Frame) : 0.277
Stream size : 1.23 GiB (83%)
Writing library : XviD 65
Audio #1
ID : 1
Format : AC-3
Format/Info : Audio Coding 3
Mode extension : CM (complete main)
Codec ID : 2000
Duration : 1h 32mn
Bit rate mode : Constant
Bit rate : 192 Kbps
Channel(s) : 2 channels
Channel positions : Front: L R
Sampling rate : 48.0 KHz
Bit depth : 16 bits
Compression mode : Lossy
Stream size : 127 MiB (8%)
Alignment : Split accross interleaves
Interleave, duration : 42 ms (1.00 video frame)
Interleave, preload duration : 500 ms
Audio #2
ID : 2
Format : AC-3
Format/Info : Audio Coding 3
Mode extension : CM (complete main)
Codec ID : 2000
Duration : 1h 32mn
Bit rate mode : Constant
Bit rate : 192 Kbps
Channel(s) : 2 channels
Channel positions : Front: L R
Sampling rate : 48.0 KHz
Bit depth : 16 bits
Compression mode : Lossy
Stream size : 127 MiB (8%)
Alignment : Split accross interleaves
Interleave, duration : 42 ms (1.00 video frame)
Interleave, preload duration : 500 ms

Субтитры

672
00:43:16,960 --> 00:43:18,527
Билл, мы можем подняться
на нашем вертолете?
673
00:43:18,529 --> 00:43:20,496
Он вернулся в ангар.
Механики обнаружили
674
00:43:20,498 --> 00:43:22,631
довольно сильную утечку масла
сегодня утром.
675
00:43:22,633 --> 00:43:24,934
Ну а сколько нужно времени
на ремонт?
676
00:43:24,936 --> 00:43:27,002
Возможно, повреждение двигателя.
Может, пару дней.
677
00:43:27,004 --> 00:43:29,004
Ну, если этот вертолет
в такой плохой форме,
678
00:43:29,006 --> 00:43:31,140
то как, тогда, вы заботились
о самолете Чарли?
679
00:43:31,142 --> 00:43:34,009
Экерман сократил персонал
до минимума. И вы это знаете.
680
00:43:34,011 --> 00:43:36,011
Я также знаю Чарли Фостера,
и тот самолет
681
00:43:36,013 --> 00:43:37,880
разбился не из-за ошибки пилота.
682
00:43:37,882 --> 00:43:39,515
Вы правы.
683
00:43:39,517 --> 00:43:41,217
Мы делаем все, что можем,
684
00:43:41,219 --> 00:43:43,352
но, возможно, этого не достаточно.
685
00:43:45,555 --> 00:43:47,356
Боже мой. Что же нам теперь делать?
686
00:43:47,358 --> 00:43:49,058
Я не знаю.
687
00:43:50,093 --> 00:43:52,695
Возможно, Уокер прав. Возможно,
мы должны просто остаться здесь
688
00:43:52,697 --> 00:43:54,163
и дать профессионалам
выполнить свою работу.
689
00:43:54,165 --> 00:43:56,165
Там мои дети, Роберт.
690
00:43:56,167 --> 00:43:57,833
Да, но они и мои дети тоже, Сьюзен.
691
00:43:57,835 --> 00:44:00,569
Ты думаешь, мне сейчас
не страшно до смерти?

poster


ВНИМАНИЕ! ТОРРЕНТ ПЕРЕЗАЛИТ 21.05.2014 в 13:02 В СВЯЗИ С ПОЯВЛЕНИЕМ РУССКОЙ ЗВУКОВОЙ ДОРОЖКИ
 
Кто просматривает тему:

Форум Тема Автор Размер
Action Conspiracy: Weapons of Mass Destruction / Морпех против терроризма 4. Гидра должна умереть [L] [RUS / RUS] (2005) TorrentFilm 431 MB
Документальные HD Nat Geo Wild: Кровная вражда. Лев против буйвола / Blood Rivals. Lion vs Buffalo (Билли-Жан Паркер \\ Billi-Jean Parker) [2014, Документальный, HDTVRip 720p] TorrentFilm 1.35 GB
Документальные HD Бегемот против крокодила / Wild-Hippo vs Croc (Кира Иванофф / Kira Ivanoff) [2013, Документальный, HDTVRip 720p] TorrentFilm 1.53 GB
Документальные HD Без Свидетелей. Павел Фитин Против Шелленберга (Екатерина Китайцева) [2015, Документальный, HDTV 720p] TorrentFilm 1.29 GB
Документальные HD Бобби Фишер Против Всего Мира / Bobby Fischer Against the World (Лиз Гарбус / Liz Garbus) [2011, Документальный, HDTV 720p] MVO (Первый Канал) TorrentFilm 2.72 GB
Зарубежные мультфильмы Бэтмен против Робина / Batman vs. Robin (Джей Олива) [2015, Мультфильм, боевик, приключения] HDRip BOSS 1.37 GB
Фильмы (HD Rips | 720p, 1080p) Бэтмен против Супермена: На заре справедливости / Batman v Superman: Dawn of Justice (2016) BDRip 1080p | iTunes ODESSA 13.86 GB
Фильмы (HD Rips | 720p, 1080p) Бэтмен против Супермена: На заре справедливости / Batman v Superman: Dawn of Justice (2016) BDRip 1080p | Theatrical Cut | Лицензия достали все 16.86 GB
Показать сообщения:    

Текущее время: Сегодня 08:31

Часовой пояс: GMT



Вы не можете начинать темы
Вы не можете отвечать на сообщения
Вы не можете редактировать свои сообщения
Вы не можете удалять свои сообщения
Вы не можете голосовать в опросах
Вы не можете прикреплять файлы к сообщениям
Вы не можете скачивать файлы