Противостояние / The One (2001) BDRip 720p

 
Автор Сообщение

sergej644 ®

Пол:

Стаж: 4 года 11 месяцев

Сообщений: 6041

Откуда: Soviet Union



Награды: Нет

Торрент-статистика

Создавать темы 11-Ноя-2014 10:40

[Цитировать]

Противостояние / The One (2001) BDRip
Информация о фильме
Год выпуска: 2004
Производство: USA / Revolution Studios, Hard Eight Pictures
Жанр: фантастика, боевик, триллер
Режиссер: Джеймс Вонг
Актеры: Джет Ли, Джейсон Стэтхем, Карла Гуджино, Делрой Линдо, Джеймс Моррисон, Дилан Бруно, Ричард Стейнметц, Стив Рэнкин, Такер Смоллвуд, Харриет Сэнсом Харрис
Описание фильма: Что делать, если твой мир рушится, когда в него вторгается безжалостный пришелец из параллельных миров? Стремясь стать сверхчеловеком, агент Межпространственного Бюро Расследований Юло совершает головокружительное сафари по параллельным мирам, охотясь за своими двойниками.
Силы его растут с каждой новой жертвой, их жизненная энергия аккумулируется в нем, наделяя его невероятными способностями. Никто не знает, что случится с хрупким равновесием вселенных, если Юло достигнет своей цели — уничтожить всех двойников. Его мечта уже почти становится реальностью, когда на пути Юло становится Гэйб — полицейский из Лос-Анджелеса…
Перевод: профессиональный (полное дублирование), профессиональный (многоголосый закадровый), профессиональный (двуголосый закадровый), авторский (одноголосый закадровый), любительский
Вид субтитров: вшитые отключаемые
Язык субтитров: русские (Full x3, Forsed), английские (Full x3, SDH)

Продолжительность: 01:27:18
Качество: BDRip (720p)
Файл
Видео: MPEG-4 AVC/H.264, 1280 x 534 (2,40:1), 9 327 kbps, 23.976 fps, 0.569 b/px
Аудио # 1: АС3, 2 ch, 256 kbps, 48 000 Hz [дублированный (Видеосервис)]
Аудио # 2: АС3, 6 ch, 640 kbps, 48 000 Hz [многоголосый закадровый (Blu-ray CEE)]
Аудио # 3: DTS, 6 ch, 1510 kbps, 48 000 Hz [двуголосый закадровый (П.Гланц и Т.Казакова)]
Аудио # 4: АС3, 6 ch, 384 kbps, 48 000 Hz [одноголосый закадровый (Ю.Живов)]
Аудио # 5: DTS, 6 ch, 1509 kbps, 48 000 Hz [одноголосый закадровый (Madrid)]
Аудио # 6: АС3, 6 ch, 448 kbps, 48 000 Hz [многоголосый закадровый (Так Треба Продакшн) (Украинский)]
Аудио # 7: DTS, 6 ch, 1510 kbps, 48 000 Hz [орининальный]

MediaInfo

Общее
Уникальный идентификатор : 231564073111536245511388413200935728829 (0xAE359E454D8AA302A1E987EEB394B6BD)
Полное имя : E:Video[2001] Противостояние [BDRip] [720].mkv
Формат : Matroska
Версия формата : Version 4 / Version 2
Размер файла : 9,70 Гбайт
Продолжительность : 1 ч. 27 м.
Общий поток : 15,9 Мбит/сек
Название фильма : Противостояние / The One (2001) BDRip [720]
Дата кодирования : UTC 2014-11-08 19:12:31
Программа кодирования : mkvmerge v7.2.0 ('On Every Street') 32bit built on Sep 13 2014 15:42:11
Библиотека кодирования : libebml v1.3.0 + libmatroska v1.4.1
DURATION : 01:22:30.570000000
NUMBER_OF_FRAMES : 801
NUMBER_OF_BYTES : 23058
_STATISTICS_WRITING_APP : mkvmerge v7.2.0 ('On Every Street') 32bit built on Sep 13 2014 15:42:11
_STATISTICS_WRITING_DATE_UTC : 2014-11-08 19:12:31
_STATISTICS_TAGS : BPS DURATION NUMBER_OF_FRAMES NUMBER_OF_BYTES
Видео
Идентификатор : 1
Формат : AVC
Формат/Информация : Advanced Video Codec
Профиль формата : High@L4.1
Параметр CABAC формата : Да
Параметр ReFrames формата : 12 кадров
Идентификатор кодека : V_MPEG4/ISO/AVC
Продолжительность : 1 ч. 27 м.
Битрейт : 9327 Кбит/сек
Ширина : 1280 пикселей
Высота : 534 пикселя
Соотношение сторон : 2,40:1
Режим частоты кадров : Постоянный
Частота кадров : 23,976 кадра/сек
Цветовое пространство : YUV
Субдискретизация насыщенности : 4:2:0
Битовая глубина : 8 бит
Тип развёртки : Прогрессивная
Бит/(Пиксели*Кадры) : 0.569
Размер потока : 5,69 Гбайт (59%)
Заголовок : [2001] Противостояние / The One [BDRip] [720]
Библиотека кодирования : x264 core 125 r2200 999b753
Настройки программы : cabac=1 / ref=12 / deblock=1:-3:-3 / analyse=0x3:0x133 / me=umh / subme=11 / psy=1 / psy_rd=1.05:0.00 / mixed_ref=1 / me_range=48 / chroma_me=1 / trellis=2 / 8x8dct=1 / cqm=0 / deadzone=21,11 / fast_pskip=0 / chroma_qp_offset=-2 / threads=12 / lookahead_threads=2 / sliced_threads=0 / nr=0 / decimate=1 / interlaced=0 / bluray_compat=0 / constrained_intra=0 / bframes=9 / b_pyramid=2 / b_adapt=2 / b_bias=0 / direct=3 / weightb=1 / open_gop=0 / weightp=2 / keyint=250 / keyint_min=23 / scenecut=40 / intra_refresh=0 / rc_lookahead=40 / rc=crf / mbtree=0 / crf=15.0 / qcomp=0.60 / qpmin=0 / qpmax=69 / qpstep=4 / vbv_maxrate=62500 / vbv_bufsize=78125 / crf_max=0.0 / nal_hrd=none / ip_ratio=1.40 / pb_ratio=1.30 / aq=1:0.80
Язык : English
Default : Да
Forced : Нет
DURATION : 01:27:18.275000000
NUMBER_OF_FRAMES : 125593
NUMBER_OF_BYTES : 6310334463
_STATISTICS_WRITING_APP : mkvmerge v7.2.0 ('On Every Street') 32bit built on Sep 13 2014 15:42:11
_STATISTICS_WRITING_DATE_UTC : 2014-11-08 19:12:31
_STATISTICS_TAGS : BPS DURATION NUMBER_OF_FRAMES NUMBER_OF_BYTES
Аудио #1
Идентификатор : 2
Формат : AC-3
Формат/Информация : Audio Coding 3
Расширение режима : CM (complete main)
Параметр Endianness формата : Big
Идентификатор кодека : A_AC3
Продолжительность : 1 ч. 27 м.
Вид битрейта : Постоянный
Битрейт : 256 Кбит/сек
Каналы : 2 канала
Расположение каналов : Front: L R
Частота : 48,0 КГц
Битовая глубина : 16 бит
Метод сжатия : С потерями
Размер потока : 160 Мбайт (2%)
Заголовок : Дублированный (Видеосервис)
Язык : Russian
Default : Да
Forced : Нет
Аудио #2
Идентификатор : 3
Формат : AC-3
Формат/Информация : Audio Coding 3
Расширение режима : CM (complete main)
Параметр Endianness формата : Big
Идентификатор кодека : A_AC3
Продолжительность : 1 ч. 27 м.
Вид битрейта : Постоянный
Битрейт : 640 Кбит/сек
Каналы : 6 каналов
Расположение каналов : Front: L C R, Side: L R, LFE
Частота : 48,0 КГц
Битовая глубина : 16 бит
Метод сжатия : С потерями
Размер потока : 400 Мбайт (4%)
Заголовок : Многоголосый закадровый (Blu-ray CEE)
Язык : Russian
Default : Нет
Forced : Нет
Аудио #3
Идентификатор : 4
Формат : DTS
Формат/Информация : Digital Theater Systems
Режим : 16
Параметр Endianness формата : Big
Идентификатор кодека : A_DTS
Продолжительность : 1 ч. 27 м.
Вид битрейта : Постоянный
Битрейт : 1510 Кбит/сек
Каналы : 6 каналов
Расположение каналов : Front: L C R, Side: L R, LFE
Частота : 48,0 КГц
Битовая глубина : 24 бит
Метод сжатия : С потерями
Размер потока : 943 Мбайт (9%)
Заголовок : Двуголосый закадровый (П.Гланц и Т.Казакова)
Язык : Russian
Default : Нет
Forced : Нет
Аудио #4
Идентификатор : 5
Формат : AC-3
Формат/Информация : Audio Coding 3
Расширение режима : CM (complete main)
Параметр Endianness формата : Big
Идентификатор кодека : A_AC3
Продолжительность : 1 ч. 27 м.
Вид битрейта : Постоянный
Битрейт : 384 Кбит/сек
Каналы : 6 каналов
Расположение каналов : Front: L C R, Side: L R, LFE
Частота : 48,0 КГц
Битовая глубина : 16 бит
Метод сжатия : С потерями
Размер потока : 240 Мбайт (2%)
Заголовок : Одноголосый закадровый (Ю.Живов)
Язык : Russian
Default : Нет
Forced : Нет
Аудио #5
Идентификатор : 6
Формат : DTS
Формат/Информация : Digital Theater Systems
Режим : 16
Параметр Endianness формата : Big
Идентификатор кодека : A_DTS
Продолжительность : 1 ч. 27 м.
Вид битрейта : Постоянный
Битрейт : 1509 Кбит/сек
Каналы : 6 каналов
Расположение каналов : Front: L C R, Side: L R, LFE
Частота : 48,0 КГц
Битовая глубина : 16 бит
Метод сжатия : С потерями
Размер потока : 942 Мбайт (9%)
Заголовок : Одноголосый закадровый (Madrid)
Язык : Russian
Default : Нет
Forced : Нет
Аудио #6
Идентификатор : 7
Формат : AC-3
Формат/Информация : Audio Coding 3
Расширение режима : CM (complete main)
Параметр Endianness формата : Big
Идентификатор кодека : A_AC3
Продолжительность : 1 ч. 27 м.
Вид битрейта : Постоянный
Битрейт : 448 Кбит/сек
Каналы : 6 каналов
Расположение каналов : Front: L C R, Side: L R, LFE
Частота : 48,0 КГц
Битовая глубина : 16 бит
Метод сжатия : С потерями
Размер потока : 280 Мбайт (3%)
Заголовок : Многоголосый закадровый (Так Треба Продакшн)
Язык : Ukrainian
Default : Нет
Forced : Нет
Аудио #7
Идентификатор : 8
Формат : DTS
Формат/Информация : Digital Theater Systems
Режим : 16
Параметр Endianness формата : Big
Идентификатор кодека : A_DTS
Продолжительность : 1 ч. 27 м.
Вид битрейта : Постоянный
Битрейт : 1510 Кбит/сек
Каналы : 6 каналов
Расположение каналов : Front: L C R, Side: L R, LFE
Частота : 48,0 КГц
Битовая глубина : 16 бит
Метод сжатия : С потерями
Размер потока : 943 Мбайт (9%)
Заголовок : Оригинальный
Язык : English
Default : Нет
Forced : Нет
Текст #1
Идентификатор : 9
Формат : UTF-8
Идентификатор кодека : S_TEXT/UTF8
Идентификатор кодека/Информация : UTF-8 Plain Text
Заголовок : Русские (Full #1)
Язык : Russian
Default : Нет
Forced : Нет
Текст #2
Идентификатор : 10
Формат : UTF-8
Идентификатор кодека : S_TEXT/UTF8
Идентификатор кодека/Информация : UTF-8 Plain Text
Заголовок : Русские (Full #2)
Язык : Russian
Default : Нет
Forced : Нет
Текст #3
Идентификатор : 11
Формат : UTF-8
Идентификатор кодека : S_TEXT/UTF8
Идентификатор кодека/Информация : UTF-8 Plain Text
Заголовок : Русские (Full #3)
Язык : Russian
Default : Нет
Forced : Нет
Текст #4
Идентификатор : 12
Формат : UTF-8
Идентификатор кодека : S_TEXT/UTF8
Идентификатор кодека/Информация : UTF-8 Plain Text
Заголовок : Русские (Forced)
Язык : Russian
Default : Да
Forced : Нет
Текст #5
Идентификатор : 13
Формат : UTF-8
Идентификатор кодека : S_TEXT/UTF8
Идентификатор кодека/Информация : UTF-8 Plain Text
Заголовок : English (Full #1)
Язык : English
Default : Нет
Forced : Нет
Текст #6
Идентификатор : 14
Формат : UTF-8
Идентификатор кодека : S_TEXT/UTF8
Идентификатор кодека/Информация : UTF-8 Plain Text
Заголовок : English (Full #2)
Язык : English
Default : Нет
Forced : Нет
Текст #7
Идентификатор : 15
Формат : UTF-8
Идентификатор кодека : S_TEXT/UTF8
Идентификатор кодека/Информация : UTF-8 Plain Text
Заголовок : English (Full #3)
Язык : English
Default : Нет
Forced : Нет
Текст #8
Идентификатор : 16
Формат : UTF-8
Идентификатор кодека : S_TEXT/UTF8
Идентификатор кодека/Информация : UTF-8 Plain Text
Заголовок : English (SDH)
Язык : English
Default : Нет
Forced : Нет
Меню
00:00:00.000 : :00:00:00.000
00:04:14.588 : :00:04:14.588
00:08:28.591 : :00:08:28.591
00:14:19.108 : :00:14:19.108
00:18:58.804 : :00:18:58.804
00:24:36.141 : :00:24:36.141
00:32:51.178 : :00:32:51.178
00:38:36.272 : :00:38:36.272
00:45:15.379 : :00:45:15.379
00:49:59.830 : :00:49:59.830
00:55:28.075 : :00:55:28.075
00:58:35.846 : :00:58:35.846
01:03:10.620 : :01:03:10.620
01:06:21.227 : :01:06:21.227
01:13:26.110 : :01:13:26.110
01:17:42.741 : :01:17:42.741

Скриншоты

[Профиль] [ЛС]
Кто просматривает тему:

Форум Тема Автор Размер
Action Conspiracy: Weapons of Mass Destruction / Морпех против терроризма 4. Гидра должна умереть [L] [RUS / RUS] (2005) TorrentFilm 431 MB
Документальные HD Nat Geo Wild: Кровная вражда. Лев против буйвола / Blood Rivals. Lion vs Buffalo (Билли-Жан Паркер \\ Billi-Jean Parker) [2014, Документальный, HDTVRip 720p] TorrentFilm 1.35 GB
Документальные HD Бегемот против крокодила / Wild-Hippo vs Croc (Кира Иванофф / Kira Ivanoff) [2013, Документальный, HDTVRip 720p] TorrentFilm 1.53 GB
Документальные HD Без Свидетелей. Павел Фитин Против Шелленберга (Екатерина Китайцева) [2015, Документальный, HDTV 720p] TorrentFilm 1.29 GB
Документальные HD Бобби Фишер Против Всего Мира / Bobby Fischer Against the World (Лиз Гарбус / Liz Garbus) [2011, Документальный, HDTV 720p] MVO (Первый Канал) TorrentFilm 2.72 GB
Зарубежные мультфильмы Бэтмен против Робина / Batman vs. Robin (Джей Олива) [2015, Мультфильм, боевик, приключения] HDRip BOSS 1.37 GB
Фильмы (HD Rips | 720p, 1080p) Бэтмен против Супермена: На заре справедливости / Batman v Superman: Dawn of Justice (2016) BDRip 1080p | iTunes ODESSA 13.86 GB
Фильмы (HD Rips | 720p, 1080p) Бэтмен против Супермена: На заре справедливости / Batman v Superman: Dawn of Justice (2016) BDRip 1080p | Theatrical Cut | Лицензия достали все 16.86 GB
Показать сообщения:    

Текущее время: Сегодня 14:54

Часовой пояс: GMT



Вы не можете начинать темы
Вы не можете отвечать на сообщения
Вы не можете редактировать свои сообщения
Вы не можете удалять свои сообщения
Вы не можете голосовать в опросах
Вы не можете прикреплять файлы к сообщениям
Вы не можете скачивать файлы