Просьба не беспокоить / Do Not Disturb (Найджел Коул / Nigel Cole) [2016, Великобритания, комедия, TVRip] VO (BadCatStudio) + Original (Eng) + Sub (Rus, Eng)

 
Автор Сообщение

TorrentFilm ®

Пол:

Стаж: 2 года

Сообщений: 7741



Награды: Нет

Торрент-статистика

Создавать темы 08-Фев-2016 00:08

[Цитировать]

Просьба не беспокоить / Do Not Disturb Год выпуска: 2016
Страна: Великобритания
Жанр: комедия
Продолжительность: 00:43:01
Перевод: Одноголосый закадровый [BadCatStudio]
Оригинальная дорожка: английская
Субтитры: русские, английские
Режиссёр: Найджел Коул / Nigel Cole-В ролях: Кэтрин Тейт, Майлс Джапп, Дилан Эдвардс, Стив Эдж, Шина Гибсон и др.-Описание: Классическая комедия положений с британским юмором и лексикой "18+"
В славном городке Стратфорд-на-Эйвоне все пропитано духом Шекспира. И только здесь могла произойти эта история, лишний раз подтверждающая, что "весь мир - театр, люди в нем - актеры". В номере отеля под оптимистичным названием "У Йорика" пересеклись пути нескольких умирающих с похмелья студентов, супружеской пары на грани развода и двух проституток... Что из этого получилось - вы узнаете, проведя чрезвычайно смешно следующие 43 минуты.
Фильм в духе таких шедевров, как "Четыре комнаты" и "Новые жильцы"
Внимание! Содержится ненормативная лексика.-Релиз: BadCatStudio
Перевод: М. Васильев
Редактура: Андрей Зверев
Закадровый текст читал: Андрей Зверев
Работа со звуком: Андрей Зверев-Качество: TVRip
Формат: AVI
Видео кодек: XviD
Аудио кодек: MP3
Видео: 608x336, 25 fps, xvid, ~1329 kbps avg, ~0.260 bit/pixel
Аудио #1: 48 kHz, MP3, 2 ch, ~128.00 kbps avg VO [BadCatStudio]
Аудио #2: 48 kHz, MP3, 2 ch, ~128.00 kbps avg Original
Субтитры: отсутствуют-Сэмпл / IMDB-

MediaInfo

General
Complete name               : G:\000\Do.Not.Disturb.2016.PDTVRip.Rus.Eng-BadCatStudio\Do.Not.Disturb.2016.PDTVRip.Rus.Eng-BadCatStudio.avi
Format                      : AVI
Format/Info                 : Audio Video Interleave
File size                   : 492 MiB
Duration                    : 43mn 0s
Overall bit rate            : 1 599 Kbps
Writing application         : VirtualDubMod 1.5.10.3 (build 2550/release)
Writing library             : VirtualDubMod build 2550/release
Video
ID                          : 0
Format                      : MPEG-4 Visual
Format profile              : Advanced Simple@L5
Format settings, BVOP       : 2
Format settings, QPel       : No
Format settings, GMC        : No warppoints
Format settings, Matrix     : Default (H.263)
Codec ID                    : XVID
Codec ID/Hint               : XviD
Duration                    : 43mn 0s
Bit rate                    : 1 329 Kbps
Width                       : 608 pixels
Height                      : 336 pixels
Display aspect ratio        : 16:9
Frame rate                  : 25.000 fps
Color space                 : YUV
Chroma subsampling          : 4:2:0
Bit depth                   : 8 bits
Scan type                   : Progressive
Compression mode            : Lossy
Bits/(Pixel*Frame)          : 0.260
Stream size                 : 409 MiB (83%)
Writing library             : XviD 1.2.1 (UTC 2008-12-04)
Audio #1
ID                          : 1
Format                      : MPEG Audio
Format version              : Version 1
Format profile              : Layer 3
Mode                        : Joint stereo
Codec ID                    : 55
Codec ID/Hint               : MP3
Duration                    : 43mn 0s
Bit rate mode               : Constant
Bit rate                    : 128 Kbps
Channel(s)                  : 2 channels
Sampling rate               : 48.0 KHz
Compression mode            : Lossy
Stream size                 : 39.4 MiB (8%)
Alignment                   : Aligned on interleaves
Interleave, duration        : 40 ms (1.00 video frame)
Interleave, preload duratio : 504 ms
Writing library             : LAME3.99r
Encoding settings           : -m j -V 4 -q 3 -lowpass 17 -b 128
Audio #2
ID                          : 2
Format                      : MPEG Audio
Format version              : Version 1
Format profile              : Layer 3
Mode                        : Joint stereo
Mode extension              : MS Stereo
Codec ID                    : 55
Codec ID/Hint               : MP3
Duration                    : 43mn 0s
Bit rate mode               : Constant
Bit rate                    : 128 Kbps
Channel(s)                  : 2 channels
Sampling rate               : 48.0 KHz
Compression mode            : Lossy
Stream size                 : 39.4 MiB (8%)
Alignment                   : Aligned on interleaves
Interleave, duration        : 40 ms (1.00 video frame)
Interleave, preload duratio : 504 ms

Скриншоты

[Профиль] [ЛС]
Кто просматривает тему:

Показать сообщения:    

Текущее время: Сегодня 14:29

Часовой пояс: GMT



Вы не можете начинать темы
Вы не можете отвечать на сообщения
Вы не можете редактировать свои сообщения
Вы не можете удалять свои сообщения
Вы не можете голосовать в опросах
Вы не можете прикреплять файлы к сообщениям
Вы не можете скачивать файлы