Просто вместе / Ensemble, c\'est tout (Клод Берри / Claude Berri) [2007, Франция, Мелодрама, HDTVRip] MVO

 
Автор Сообщение

painkiller ®

Стаж: 2 года 3 месяца

Сообщений: 582



Награды: Нет

Торрент-статистика

Создавать темы 14-Авг-2014 09:11

[Цитировать]

Просто вместе / Ensemble, c'est tout
Страна: Франция
Жанр: Мелодрамма
Год выпуска: 2007
Продолжительность: 01:32:38
Перевод: Профессиональный (многоголосый закадровый)
Cубтитры: нет
Режиссер: Клод Берри / Claude Berri
В ролях: Одри Тоту, Гийом Кане, Лорен Стокер, Франсуаза Бертин, Ален Сакс, Фермин Ричард, Беатрис Мишель, Каена Саиги, Хелен Сюргере
Описание: Молодая девушка Камилла заводит дружбу со своим соседом Филибером и через некоторое время в силу определенных обстоятельств перебирается к нему в квартиру, где находит не только физическое, но и душевное тепло. Там же она знакомится с поваром Франком, отношения с ним поначалу не складываются, но затем между Камиллой и Франком возникает глубокая привязанность.
Трое главных героев, которым не слишком повезло ни с семьей, ни с характером, неожиданно обретают гармонию и вкус к жизни. Ссоры и примирения, споры и согласие. Держась вместе, они становятся сильнее. Но все не так радужно и кокон, который соорудили себе трое друзей, не защищает их от превратностей судьбы. И снаружи и внутри него их счастье находится под угрозой. Возможно, ли избежать проблем, не рискуя при этом упустить что-то важное?
Сэмпл: http://multi-up.com/982506
Качество видео: HDTVRip
Формат видео: XviD
Видео: XviD, 720x384 (1.875), 25.000 fps, 1 794 Kbps (0.260 bit/pixel)
Аудио: AC-3, 48.0 KHz, 6 ch, 448 Kbps, CBR

MediaInfo

General
Complete name : E:Ensemble,c'est.tout_[ СПАМ
Format : AVI
Format/Info : Audio Video Interleave
File size : 1.46 GiB
Duration : 1h 32mn
Overall bit rate : 2 252 Kbps
Writing application : VirtualDubMod 1.5.10.2 (build 2540/release)
Writing library : VirtualDubMod build 2540/release
Video
ID : 0
Format : MPEG-4 Visual
Format profile : Advanced Simple@L5
Format settings, BVOP : 1
Format settings, QPel : No
Format settings, GMC : No warppoints
Format settings, Matrix : Default (MPEG)
Codec ID : XVID
Codec ID/Hint : XviD
Duration : 1h 32mn
Bit rate : 1 794 Kbps
Width : 720 pixels
Height : 384 pixels
Display aspect ratio : 1.875
Frame rate : 25.000 fps
Color space : YUV
Chroma subsampling : 4:2:0
Bit depth : 8 bits
Scan type : Progressive
Compression mode : Lossy
Bits/(Pixel*Frame) : 0.260
Stream size : 1.16 GiB (80%)
Writing library : XviD 1.2.0.dev47 (UTC 2006-11-01)
Audio
ID : 1
Format : AC-3
Format/Info : Audio Coding 3
Mode extension : CM (complete main)
Codec ID : 2000
Duration : 1h 32mn
Bit rate mode : Constant
Bit rate : 448 Kbps
Channel(s) : 6 channels
Channel positions : Front: L C R, Side: L R, LFE
Sampling rate : 48.0 KHz
Bit depth : 16 bits
Compression mode : Lossy
Stream size : 297 MiB (20%)
Alignment : Split accross interleaves
Interleave, duration : 40 ms (1.00 video frame)
Interleave, preload duration : 500 ms

Скриншоты

[Профиль] [ЛС]

Создавать темы 06-Авг-2015 23:17 (спустя 11 месяцев 23 дня)

Топик был перенесен из форума Фильмы до 2014 года в форум Фильмы до 2012 года
sergej644
 
Кто просматривает тему:

Форум Тема Автор Размер
Da Vinci Learning Da Vinci Learning: BBC: Музыка простых чисел / The Music of the Primes [серии 1-3 из 3] (Kieran Smyth) [2006 г., Документальный, научно-познавательный, исследования, гипотезы, SATRip] skorpionN 1.1 GB
Da Vinci Learning Da Vinci Learning: BBC: Невидимое простым глазом / Beyond The Naked Eye [серии 1-3 из 3] (Rosalind Bain, Jessica Barrington) [2002 г., Документальный, научно-познавательный, исследования, гипотезы,... skorpionN 1.21 GB
Da Vinci Learning Da Vinci Learning: Плазма: новая заря / Plasma. Ultimate Aurora (Энди Касагранд / Andy Casagrande, Томас Лукас / Thomas Lucas) [2013 г., Документальный, научно-популярный, физика и пространство,... skorpionN 716 MB
S.T.A.L.K.E.R. S.T.A.L.K.E.R.: Call of Pripyat - Пространственная аномалия (1.001 (Update 4)) (2015) PC | RePack by SeregA-Lus Richi Keeper 3.68 GB
Научная и техническая литература Варвара Ахрименко - Дизайн малогабаритной квартиры. Правила увеличения пространства (2015) PDF достали все 26 MB
Медицина и здоровье Виктория Исаева | Как научиться понимать своего ребенка: 27 простых правил (2010) [FB2] sergej644 307 KB
Фильмы (HD Rips | 720p, 1080p) Внутреннее пространство / Innerspace (1987) BDRip 720p Russian Mafia 7.77 GB
Зарубежные сериалы Все в порядке, это любовь / Просто это любовь / Ничего страшного, это любовь / It's Okay It's Love [01-16 из 16](2014) HDTVRip 720р | L2 Белочка 18.51 GB
Показать сообщения:    

Текущее время: Сегодня 10:50

Часовой пояс: GMT



Вы не можете начинать темы
Вы не можете отвечать на сообщения
Вы не можете редактировать свои сообщения
Вы не можете удалять свои сообщения
Вы не можете голосовать в опросах
Вы не можете прикреплять файлы к сообщениям
Вы не можете скачивать файлы