Простое желание / A Simple Wish (1997) BDRip 720p от ivandubskoj | P, A

 
Автор Сообщение

Russian Mafia ®

Пол:

Стаж: 1 год 8 месяцев

Сообщений: 4253



Награды: 10 (Подробнее)

Mega Seeder 4 (Количество: 1) Top Releaser 2 (Количество: 1) За внесенный вклад в развитие сайта (Количество: 1)
Торрент-статистика

Создавать темы 03-Авг-2016 13:36

[Цитировать]

Информация о фильме
Название: Простое желание
Оригинальное название: A Simple Wish
Год выхода: 1997
Жанр: Фэнтези, приключения, комедия, семейный
Режиссёр: Майкл Ритчи
В ролях: Мартин Шот, Роберт Пасторелли, Мара Уилсон, Френсис Капра, Кэтлин Тёрнер, Аманда Пламмер, Эйден Куинн, Терри Гарр, Руби Ди, Джонатан Хэдари, Лэнни Флаэрти, Алан Кэмпбелл, Дебора Оделл
О фильме:
Когда Энабел загадала желание о том, чтобы у нее появилась добрая фея, она и представить себе не могла, что его имя будет Мюррэй. Очень скоро Энабел понимает, что у Мюррэя нет никакого опыта с детьми, зато отговорок хоть отбавляй. Энабел и недотепа Мюррэй втягиваются в уморительно смешной круговорот волшебных событий и приключений, а спасти папу девочки необходимо до полуночи. Им приходится сразиться со злой ведьмой и вернуть волшебную палочку, чтобы мир снова стал таким, где желания могут сбываться.

Выпущено: США, Universal Pictures, The Bubble Factory, Sheinberg Productions
Продолжительность: 01:29:27
Перевод: Профессиональный многоголосый (ТНТ), авторский одноголосый (А. Алексеев)
Оригинальная аудио-дорожка: Английская
Файл
Формат: MKV
Кодек: MPEG-4 AVC
Качество: BDRip 720p [Исходник: A.Simple.Wish.1997.BluRay.1080p.VC1.DTS-HDMA.5.1]
Видео: MPEG-4 AVC, 1280x688 (1.85:1), 5800 Кбит/с, 23.976 кадр/с, 0.275 bit/pixel
Аудио #1: Русский, Dolby AC3, 48000 Гц, 192 Кбит/с, 2 канала (Стерео) - MVO [ТНТ]
Аудио #2: Русский, Dolby AC3, 48000, 448 Кбит/с, 6 каналов (5.1) - AVO [А. Алексеев]
Аудио #6: Английский, Dolby AC3, 48000 Гц, 640 Кбит/с, 6 каналов - Оригинал
Субтитры: Русские, английские (полные, SDH) SRT
Навигация по главам: Есть (Сохранены оригинальные чаптеры, как на Blu-ray)

MediaInfo

General
Unique ID : 240651818743565207707638101671185564015 (0xB50BDAB93BEE74919C4D64654B25416F)
Complete name : A.Simple.Wish.1997.BDRip.720p.mkv
Format : Matroska
Format version : Version 4 / Version 2
File size : 4.42 GiB
Duration : 1h 29mn
Overall bit rate : 7 082 Kbps
Movie name : Простое желание / A Simple Wish (1997) BDRip (720p) от ivandubskoj
Encoded date : UTC 2016-08-03 12:20:32
Writing application : mkvmerge v7.9.0 ('Birds') 64bit
Writing library : libebml v1.3.1 + libmatroska v1.4.2
Video
ID : 1
Format : AVC
Format/Info : Advanced Video Codec
Format profile : High@L4.1
Format settings, CABAC : Yes
Format settings, ReFrames : 9 frames
Codec ID : V_MPEG4/ISO/AVC
Duration : 1h 29mn
Bit rate : 5 800 Kbps
Width : 1 280 pixels
Height : 688 pixels
Display aspect ratio : 1.85:1
Frame rate mode : Constant
Frame rate : 23.976 fps
Color space : YUV
Chroma subsampling : 4:2:0
Bit depth : 8 bits
Scan type : Progressive
Bits/(Pixel*Frame) : 0.275
Stream size : 3.54 GiB (80%)
Title : A Simple Wish (1997)
Writing library : x264 core 148 r2597 e86f3a1
Encoding settings : cabac=1 / ref=9 / deblock=1:-3:-3 / analyse=0x3:0x113 / me=umh / subme=11 / psy=1 / psy_rd=1.10:0.15 / mixed_ref=1 / me_range=32 / chroma_me=1 / trellis=2 / 8x8dct=1 / cqm=0 / deadzone=21,11 / fast_pskip=0 / chroma_qp_offset=-3 / threads=6 / lookahead_threads=1 / sliced_threads=0 / nr=0 / decimate=0 / interlaced=0 / bluray_compat=0 / constrained_intra=0 / bframes=8 / b_pyramid=2 / b_adapt=2 / b_bias=0 / direct=3 / weightb=1 / open_gop=0 / weightp=2 / keyint=240 / keyint_min=23 / scenecut=40 / intra_refresh=0 / rc_lookahead=40 / rc=2pass / mbtree=0 / bitrate=5800 / ratetol=1.0 / qcomp=0.60 / qpmin=0 / qpmax=69 / qpstep=4 / cplxblur=20.0 / qblur=0.5 / vbv_maxrate=50000 / vbv_bufsize=62500 / nal_hrd=none / filler=0 / ip_ratio=1.40 / pb_ratio=1.30 / aq=1:1.00
Language : English
Default : Yes
Forced : No
Audio #1
ID : 2
Format : AC-3
Format/Info : Audio Coding 3
Mode extension : CM (complete main)
Format settings, Endianness : Big
Codec ID : A_AC3
Duration : 1h 29mn
Bit rate mode : Constant
Bit rate : 192 Kbps
Channel(s) : 2 channels
Channel positions : Front: L R
Sampling rate : 48.0 KHz
Bit depth : 16 bits
Compression mode : Lossy
Stream size : 123 MiB (3%)
Title : MVO [THT]
Language : Russian
Default : Yes
Forced : No
Audio #2
ID : 3
Format : AC-3
Format/Info : Audio Coding 3
Mode extension : CM (complete main)
Format settings, Endianness : Big
Codec ID : A_AC3
Duration : 1h 29mn
Bit rate mode : Constant
Bit rate : 448 Kbps
Channel(s) : 6 channels
Channel positions : Front: L C R, Side: L R, LFE
Sampling rate : 48.0 KHz
Bit depth : 16 bits
Compression mode : Lossy
Stream size : 287 MiB (6%)
Title : AVO [А. Алексеев]
Language : Russian
Default : No
Forced : No
Audio #3
ID : 4
Format : AC-3
Format/Info : Audio Coding 3
Mode extension : CM (complete main)
Format settings, Endianness : Big
Codec ID : A_AC3
Duration : 1h 29mn
Bit rate mode : Constant
Bit rate : 640 Kbps
Channel(s) : 6 channels
Channel positions : Front: L C R, Side: L R, LFE
Sampling rate : 48.0 KHz
Bit depth : 16 bits
Compression mode : Lossy
Stream size : 409 MiB (9%)
Title : Original
Language : English
Default : No
Forced : No
Text #1
ID : 5
Format : UTF-8
Codec ID : S_TEXT/UTF8
Codec ID/Info : UTF-8 Plain Text
Title : Full
Language : Russian
Default : No
Forced : No
Text #2
ID : 6
Format : UTF-8
Codec ID : S_TEXT/UTF8
Codec ID/Info : UTF-8 Plain Text
Title : Full [SDH]
Language : English
Default : No
Forced : No
Menu
00:00:00.000 : en:00:00:00.000
00:05:35.585 : en:00:05:35.585
00:13:06.995 : en:00:13:06.995
00:18:13.384 : en:00:18:13.384
00:23:28.574 : en:00:23:28.574
00:29:22.678 : en:00:29:22.678
00:32:52.721 : en:00:32:52.721
00:38:39.692 : en:00:38:39.692
00:43:30.024 : en:00:43:30.024
00:56:18.250 : en:00:56:18.250
01:02:03.261 : en:01:02:03.261
01:07:48.523 : en:01:07:48.523
01:11:23.696 : en:01:11:23.696
01:16:11.108 : en:01:16:11.108
01:20:18.439 : en:01:20:18.439
01:24:41.743 : en:01:24:41.743

Скриншоты



Автор рипа - ivandubskoj
[Профиль] [ЛС]
Кто просматривает тему:

Форум Тема Автор Размер
Da Vinci Learning Da Vinci Learning: BBC: Музыка простых чисел / The Music of the Primes [серии 1-3 из 3] (Kieran Smyth) [2006 г., Документальный, научно-познавательный, исследования, гипотезы, SATRip] skorpionN 1.1 GB
Da Vinci Learning Da Vinci Learning: BBC: Невидимое простым глазом / Beyond The Naked Eye [серии 1-3 из 3] (Rosalind Bain, Jessica Barrington) [2002 г., Документальный, научно-познавательный, исследования, гипотезы,... skorpionN 1.21 GB
Da Vinci Learning Da Vinci Learning: Плазма: новая заря / Plasma. Ultimate Aurora (Энди Касагранд / Andy Casagrande, Томас Лукас / Thomas Lucas) [2013 г., Документальный, научно-популярный, физика и пространство,... skorpionN 716 MB
S.T.A.L.K.E.R. S.T.A.L.K.E.R.: Call of Pripyat - Пространственная аномалия (1.001 (Update 4)) (2015) PC | RePack by SeregA-Lus Richi Keeper 3.68 GB
Научная и техническая литература Варвара Ахрименко - Дизайн малогабаритной квартиры. Правила увеличения пространства (2015) PDF достали все 26 MB
Медицина и здоровье Виктория Исаева | Как научиться понимать своего ребенка: 27 простых правил (2010) [FB2] sergej644 307 KB
Фильмы (HD Rips | 720p, 1080p) Внутреннее пространство / Innerspace (1987) BDRip 720p Russian Mafia 7.77 GB
Зарубежные сериалы Все в порядке, это любовь / Просто это любовь / Ничего страшного, это любовь / It's Okay It's Love [01-16 из 16](2014) HDTVRip 720р | L2 Белочка 18.51 GB
Показать сообщения:    

Текущее время: Сегодня 08:30

Часовой пояс: GMT



Вы не можете начинать темы
Вы не можете отвечать на сообщения
Вы не можете редактировать свои сообщения
Вы не можете удалять свои сообщения
Вы не можете голосовать в опросах
Вы не можете прикреплять файлы к сообщениям
Вы не можете скачивать файлы