Простое желание / A Simple Wish (1997) HDRip | КПК | P

 
Автор Сообщение

Шкипер ®

Пол:

Стаж: 1 год 7 месяцев

Сообщений: 53



Награды: Нет

Торрент-статистика

Создавать темы 01-Сен-2016 11:59

[Цитировать]

Информация о фильме
Название: Простое желание
Оригинальное название: A Simple Wish
Год выхода: 1997
Жанр: Фэнтези, приключения, комедия, семейный
Режиссер: Майкл Ритчи
В ролях: Мартин Шот, Роберт Пасторелли, Мара Уилсон, Френсис Капра, Кэтлин Тёрнер, Аманда Пламмер, Эйден Куинн, Терри Гарр, Руби Ди, Джонатан Хэдари, Лэнни Флаэрти, Алан Кэмпбелл, Дебора Оделл
О фильме: Когда Энабел загадала желание о том, чтобы у нее появилась добрая фея, она и представить себе не могла, что его имя будет Мюррэй. Очень скоро Энабел понимает, что у Мюррэя нет никакого опыта с детьми, зато отговорок хоть отбавляй. Энабел и недотепа Мюррэй втягиваются в уморительно смешной круговорот волшебных событий и приключений, а спасти папу девочки необходимо до полуночи. Им приходится сразиться со злой ведьмой и вернуть волшебную палочку, чтобы мир снова стал таким, где желания могут сбываться.

Страна: США
Студия: Universal Pictures, The Bubble Factory, Sheinberg Productions
Продолжительность: 01:29:27
Перевод: Профессиональный (многоголосый, закадровый) - (ТНТ)
Файл
Кодек: h264
Качество: HDRip | КПК
Видео: MPEG4 Video (H264) 688x368 (1.85:1), (420p) 23.976fps ~700kbps, ~0.12 Bits/Pixel
Звук: AAC, 44100Hz, 2ch, 125kbps
Субтитры: Отсутствуют
Семпл

MI

General
Complete name : E:Изготовление рипаA.Simple.Wish.1997.HDRip by shkiper.mp4
Format : MPEG-4
Format profile : Base Media
Codec ID : isom
File size : 530 MiB
Duration : 1h 29mn
Overall bit rate mode : Variable
Overall bit rate : 828 Kbps
Encoded date : UTC 2016-08-31 09:59:22
Tagged date : UTC 2016-08-31 09:59:22
Video
ID : 1
Format : AVC
Format/Info : Advanced Video Codec
Format profile : Baseline@L3
Format settings, CABAC : No
Format settings, ReFrames : 1 frame
Codec ID : avc1
Codec ID/Info : Advanced Video Coding
Duration : 1h 29mn
Bit rate : 700 Kbps
Maximum bit rate : 2 231 Kbps
Width : 688 pixels
Height : 368 pixels
Display aspect ratio : 1.85:1
Frame rate mode : Constant
Frame rate : 23.976 fps
Color space : YUV
Chroma subsampling : 4:2:0
Bit depth : 8 bits
Scan type : Progressive
Bits/(Pixel*Frame) : 0.115
Stream size : 448 MiB (85%)
Title : Imported with GPAC 0.4.6-DEV (internal rev. 5)
Writing library : x264 core 67 r1165M 6841c5e
Encoding settings : cabac=0 / ref=1 / deblock=1:0:0 / analyse=0x1:0 / me=hex / subme=6 / psy_rd=1.0:0.0 / mixed_ref=0 / me_range=16 / chroma_me=1 / trellis=0 / 8x8dct=0 / cqm=0 / deadzone=21,11 / chroma_qp_offset=-2 / threads=3 / nr=0 / decimate=1 / mbaff=0 / bframes=0 / keyint=250 / keyint_min=25 / scenecut=40 / rc=2pass / bitrate=700 / ratetol=1.0 / qcomp=0.60 / qpmin=10 / qpmax=51 / qpstep=4 / cplxblur=20.0 / qblur=0.5 / vbv_maxrate=1500 / vbv_bufsize=2000 / ip_ratio=1.40 / aq=1:1.00
Encoded date : UTC 2016-08-31 09:59:22
Tagged date : UTC 2016-08-31 10:00:05
Audio
ID : 2
Format : AAC
Format/Info : Advanced Audio Codec
Format profile : LC
Codec ID : 40
Duration : 1h 29mn
Bit rate mode : Variable
Bit rate : 126 Kbps
Maximum bit rate : 283 Kbps
Channel(s) : 2 channels
Channel positions : Front: L R
Sampling rate : 44.1 KHz
Compression mode : Lossy
Stream size : 80.3 MiB (15%)
Title : Imported with GPAC 0.4.6-DEV (internal rev. 5)
Encoded date : UTC 2016-08-31 09:59:57
Tagged date : UTC 2016-08-31 10:00:05

Скриншоты

Релиз от:
[Профиль] [ЛС]

Создавать темы 01-Сен-2016 12:26 (спустя 27 минут)

Топик был перенесен из форума Фильмы до 2000 года в форум Фильмы для iOS,iPad, iPhone
Russian Mafia
 
Кто просматривает тему:

Форум Тема Автор Размер
Da Vinci Learning Da Vinci Learning: BBC: Музыка простых чисел / The Music of the Primes [серии 1-3 из 3] (Kieran Smyth) [2006 г., Документальный, научно-познавательный, исследования, гипотезы, SATRip] skorpionN 1.1 GB
Da Vinci Learning Da Vinci Learning: BBC: Невидимое простым глазом / Beyond The Naked Eye [серии 1-3 из 3] (Rosalind Bain, Jessica Barrington) [2002 г., Документальный, научно-познавательный, исследования, гипотезы,... skorpionN 1.21 GB
Da Vinci Learning Da Vinci Learning: Плазма: новая заря / Plasma. Ultimate Aurora (Энди Касагранд / Andy Casagrande, Томас Лукас / Thomas Lucas) [2013 г., Документальный, научно-популярный, физика и пространство,... skorpionN 716 MB
S.T.A.L.K.E.R. S.T.A.L.K.E.R.: Call of Pripyat - Пространственная аномалия (1.001 (Update 4)) (2015) PC | RePack by SeregA-Lus Richi Keeper 3.68 GB
Научная и техническая литература Варвара Ахрименко - Дизайн малогабаритной квартиры. Правила увеличения пространства (2015) PDF достали все 26 MB
Медицина и здоровье Виктория Исаева | Как научиться понимать своего ребенка: 27 простых правил (2010) [FB2] sergej644 307 KB
Фильмы (HD Rips | 720p, 1080p) Внутреннее пространство / Innerspace (1987) BDRip 720p Russian Mafia 7.77 GB
Зарубежные сериалы Все в порядке, это любовь / Просто это любовь / Ничего страшного, это любовь / It's Okay It's Love [01-16 из 16](2014) HDTVRip 720р | L2 Белочка 18.51 GB
Показать сообщения:    

Текущее время: Сегодня 05:17

Часовой пояс: GMT



Вы не можете начинать темы
Вы не можете отвечать на сообщения
Вы не можете редактировать свои сообщения
Вы не можете удалять свои сообщения
Вы не можете голосовать в опросах
Вы не можете прикреплять файлы к сообщениям
Вы не можете скачивать файлы