Простая история (Виктор Татарский) [2016, Боевик, военный, драма, WEB-DLRip]

 
Автор Сообщение

Один 777 ®

Пол:

Стаж: 1 год 8 месяцев

Сообщений: 460

Откуда: Луцк



Награды: 7 (Подробнее)

Mega Seeder 4 (Количество: 1) Mega Seeder 3 (Количество: 1) Mega Seeder 1 (Количество: 1)
Торрент-статистика

Создавать темы 25-Авг-2016 10:48

[Цитировать]

Простая история
Год выпуска: 2016
Страна: Россия / Фонд кино
Жанр: Боевик, военный, драма
Продолжительность: 01:30:02
Cубтитры: нет
Режиссёр: Виктор Татарский
В ролях: Сергей Марин, Анастасия Тюнина, Екатерина Проскурина, Михаил Елисеев, Евгений Сидихин, Юсуп Бахшиев, Евгений Добряков, Алексей Красноцветов, Дмитрий Быковский-Ромашов...
Описание: Вячеслав Воробьев - боец особого подразделения ОМОН. По стечению обстоятельств после одного из спецзаданий сослуживцы и командиры начинают подозревать Вячеслава в гибели товарища. Желая реабилитироваться перед ними и вновь заслужить доверие, главный герой вызывается во внеочередную опасную командировку в город Назрань. Там он знакомится с девушкой Наташей, в которую влюбляется с первого взгляда. Наташа принимает ухаживания молодого человека, и у них завязываются отношения. Но Слава скрывает место своей работы и цели командировки. Правду Наташа узнает только в тот момент, когда Слава отправляется на самое опасное боевое задание в своей жизни.

Сэмпл: http://sendfile.su/1259757

Качество видео: WEB-DLRip
Формат видео: AVI
Видео кодек: XviD
Аудио кодек: MP3
Видео: 640x272 (2.35:1), 25 fps, XviD build 73 ~1026 kbps avg, 0.24 bit/pixel
Аудио: 48 kHz, MPEG Layer 3, 2 ch, ~128.00 kbps avg

MediaInfo

Общее
Полное имя : D:\Prostaja.istorija.2016.WEB-DLRip.740.[Один 777].avi
Формат : AVI
Формат/Информация : Audio Video Interleave
Размер файла : 750 Мбайт
Продолжительность : 1 ч. 30 м.
Общий поток : 1165 Кбит/сек
Программа кодирования : VirtualDubMod 1.5.10.3 | www.virtualdub-fr.org || (build 2550/release)
Библиотека кодирования : VirtualDubMod build 2550/release
Видео
Идентификатор : 0
Формат : MPEG-4 Visual
Профиль формата : Advanced Simple@L5
Параметр BVOP формата : 2
Параметр QPel формата : Нет
Параметр GMC формата : Без точки перехода
Параметр матрицы формата : Default (H.263)
Идентификатор кодека : XVID
Идентификатор кодека/Подсказка : XviD
Продолжительность : 1 ч. 30 м.
Битрейт : 1027 Кбит/сек
Ширина : 640 пикселей
Высота : 272 пикселя
Соотношение сторон : 2,35:1
Частота кадров : 25,000 кадров/сек
Цветовое пространство : YUV
Субдискретизация насыщенности : 4:2:0
Битовая глубина : 8 бит
Тип развёртки : Прогрессивная
Метод сжатия : С потерями
Бит/(Пиксели*Кадры) : 0.236
Размер потока : 661 Мбайт (88%)
Библиотека кодирования : XviD 73
Аудио
Идентификатор : 1
Формат : MPEG Audio
Версия формата : Version 1
Профиль формата : Layer 3
Идентификатор кодека : 55
Идентификатор кодека/Подсказка : MP3
Продолжительность : 1 ч. 30 м.
Вид битрейта : Постоянный
Битрейт : 128 Кбит/сек
Каналы : 2 канала
Частота : 48,0 КГц
Метод сжатия : С потерями
Размер потока : 82,4 Мбайт (11%)
Выравнивание : Соединение по промежуткам
Продолжительность промежутка : 40 мс. (1,00 видеокадр)
Время предзагрузки промежутка : 504 мс.
Библиотека кодирования : LAME3.99r
Настройки программы : -m s -V 4 -q 2 -lowpass 17 -b 128

Скриншот c названием фильма

Скриншоты

[Профиль] [ЛС]
Кто просматривает тему:

Форум Тема Автор Размер
Da Vinci Learning Da Vinci Learning: BBC: Музыка простых чисел / The Music of the Primes [серии 1-3 из 3] (Kieran Smyth) [2006 г., Документальный, научно-познавательный, исследования, гипотезы, SATRip] skorpionN 1.1 GB
Da Vinci Learning Da Vinci Learning: BBC: Невидимое простым глазом / Beyond The Naked Eye [серии 1-3 из 3] (Rosalind Bain, Jessica Barrington) [2002 г., Документальный, научно-познавательный, исследования, гипотезы,... skorpionN 1.21 GB
Da Vinci Learning Da Vinci Learning: Плазма: новая заря / Plasma. Ultimate Aurora (Энди Касагранд / Andy Casagrande, Томас Лукас / Thomas Lucas) [2013 г., Документальный, научно-популярный, физика и пространство,... skorpionN 716 MB
S.T.A.L.K.E.R. S.T.A.L.K.E.R.: Call of Pripyat - Пространственная аномалия (1.001 (Update 4)) (2015) PC | RePack by SeregA-Lus Richi Keeper 3.68 GB
Научная и техническая литература Варвара Ахрименко - Дизайн малогабаритной квартиры. Правила увеличения пространства (2015) PDF достали все 26 MB
Медицина и здоровье Виктория Исаева | Как научиться понимать своего ребенка: 27 простых правил (2010) [FB2] sergej644 307 KB
Фильмы (HD Rips | 720p, 1080p) Внутреннее пространство / Innerspace (1987) BDRip 720p Russian Mafia 7.77 GB
Зарубежные сериалы Все в порядке, это любовь / Просто это любовь / Ничего страшного, это любовь / It's Okay It's Love [01-16 из 16](2014) HDTVRip 720р | L2 Белочка 18.51 GB
Показать сообщения:    

Текущее время: Сегодня 14:57

Часовой пояс: GMT



Вы не можете начинать темы
Вы не можете отвечать на сообщения
Вы не можете редактировать свои сообщения
Вы не можете удалять свои сообщения
Вы не можете голосовать в опросах
Вы не можете прикреплять файлы к сообщениям
Вы не можете скачивать файлы