Простая душа / Un coeur simple (Марион Лэйн / Marion Laine) [2008, Франция, драма, экранизация, DVB -> DVD] Original (Fre) + Sub (Rus, Eng, Fre, Deu)

 
Автор Сообщение

TorrentFilm ®

Пол:

Стаж: 2 года 4 месяца

Сообщений: 7773



Награды: Нет

Торрент-статистика

Создавать темы 25-Ноя-2015 00:08

[Цитировать]

Простая душа
Un coeur simple- Страна: Франция
Жанр: драма, экранизация
Год выпуска: 2008
Продолжительность: 01:39:46Перевод: Субтитры (русский перевод И.Безлюдной, Éclair Media)
Cубтитры: русские, английские, французские, немецкие, нидерландские, румынские
Оригинальная аудиодорожка: французский
Режиссер: Марион Лэйн / Marion Laine
В ролях: Сандрин Боннер / Sandrine Bonnaire (Félicité), Марина Фоис / Marina Foïs (Mathilde Aubain), Паскаль Эльбе / Pascal Elbé (Théodore), Патрик Пино / Patrick Pineau (Liébard), Тибо Винсон / Thibault Vinçon (Frédéric), Ноэми Львовски / Noémie Lvovsky (Nastasie), Микаэль Абитбуль / Michaël Abiteboul (Fabu), Жоан Либеро / Johan Libéreau (Victor), Сванн Арло / Swann Arlaud (Paul Aubain)
Описание: По одноименной новелле Гюстава Флобера / Gustave Flaubert (1877).
Фелисите никак не может забыть свою первую любовь. Устроившись служанкой в дом недавно овдовевшей Матильды Обэн, живущей с двумя детьми, она с головой уходит в работу. Но время лечит совсем не так быстро, как того хотелось бы. Не в силах справиться со своей любовью, Фелисите изливает ее на детей Матильды и на своего племянника Виктора, не теряет веры, в то, что когда-нибудь найдет человека, который сможет принять и разделить ее чувства.
Доп. информация: Hot Bird (13.0°E) TV5MONDE Europe DVB-S
Награды: Специальный приз жюри Moscow International Film Festival 2008 + номинация на "Золотой Св. Георгий" за лучший фильм; премия SIGNIS Award - Mar del Plata Film Festival 2008 + номинация на лучший фильм; премия Жака Ривера 2009 за лучшую адаптацию.

Качество видео: DVB
Формат видео: DVD Video
Видео: MPEG Video 2, 720x576@1024x576 (16:9), 25 fps, ~3195 kbps avg, 0.308 bit/pixel
Аудио: MPEG Audio 2, 2 ch, 48 kHz, 192.00 kbps - французский
Формат субтитров: prerendered (IDX+SUB)

MediaInfo

Title: [apreder]Un_coeur_simple(2008)DVBSize: 2.41 Gb ( 2 526 186,00 KBytes ) - DVD-5Enabled regions: 1, 2, 3, 4, 5, 6, 7, 8
VTS_01 : Play Length: 01:39:46 Video: PAL 16:9 (720x576) VBR, Auto Letterboxed Audio: Francais (MPEG1, 2 ch) Subtitles: Russian English Francais Deutsch Nederlands Romanian
ОбщееПолное имя : F:\My Torrents 3\[apreder]Un_coeur_simple(2008)DVB\VIDEO_TS\VTS_01_2.VOBФормат : MPEG-PSРазмер файла : 1024 МбайтПродолжительность : 41 м.Режим общего битрейта : ПеременныйОбщий поток : 3456 Кбит/сек
ВидеоИдентификатор : 224 (0xE0)Формат : MPEG VideoВерсия формата : Version 2Профиль формата : Main@MainПараметр BVOP формата : ДаПараметр матрицы формата : ВыборочнаяПараметр GOP формата : VariableFormat_Settings_PictureStructure : FrameПродолжительность : 41 м.Вид битрейта : ПеременныйБитрейт : 3195 Кбит/секШирина : 720 пикселейВысота : 576 пикселейСоотношение сторон : 16:9Частота кадров : 25,000 кадров/секСтандарт вещания : PALЦветовое пространство : YUVСубдискретизация насыщенности : 4:2:0Битовая глубина : 8 битТип развёртки : ЧересстрочнаяПорядок развёртки : Верхнее поле первоеМетод сжатия : С потерямиБит/(Пиксели*Кадры) : 0.308Временной код первого кадра : 00:41:22:03Оригинал временного кода : Group of pictures headerРазмер потока : 947 Мбайт (92%)
АудиоИдентификатор : 192 (0xC0)Формат : MPEG AudioВерсия формата : Version 1Профиль формата : Layer 2Режим : Joint stereoРасширение режима : Intensity Stereo + MS StereoПродолжительность : 41 м.Вид битрейта : ПостоянныйБитрейт : 192 Кбит/секКаналы : 2 каналаЧастота : 48,0 КГцМетод сжатия : С потерямиЗадержка видео : -664 мс.Размер потока : 56,9 Мбайт (6%)
Текст #1Идентификатор : 189 (0xBD)-32 (0x20)Формат : RLEФормат/Информация : Run-length encodingРежим смешивания : DVD-VideoПродолжительность : 41 м.Задержка видео : 1 с. 160 мс.
Текст #2Идентификатор : 189 (0xBD)-33 (0x21)Формат : RLEФормат/Информация : Run-length encodingРежим смешивания : DVD-VideoПродолжительность : 41 м.Задержка видео : 1 с. 240 мс.
Текст #3Идентификатор : 189 (0xBD)-34 (0x22)Формат : RLEФормат/Информация : Run-length encodingРежим смешивания : DVD-VideoПродолжительность : 41 м.Задержка видео : 1 с. 80 мс.
Текст #4Идентификатор : 189 (0xBD)-35 (0x23)Формат : RLEФормат/Информация : Run-length encodingРежим смешивания : DVD-VideoПродолжительность : 41 м.Задержка видео : 1 с. 200 мс.
Текст #5Идентификатор : 189 (0xBD)-36 (0x24)Формат : RLEФормат/Информация : Run-length encodingРежим смешивания : DVD-VideoПродолжительность : 41 м.Задержка видео : 1 с. 200 мс.
Текст #6Идентификатор : 189 (0xBD)-37 (0x25)Формат : RLEФормат/Информация : Run-length encodingРежим смешивания : DVD-VideoПродолжительность : 41 м.Задержка видео : 10 с.

Скриншот c названием фильма

Скриншоты


Резервные скриншоты


- [2'723]
[Профиль] [ЛС]

Создавать темы 12-Июн-2016 08:50 (спустя 6 месяцев 17 дней)

Топик был перенесен из форума Фильмы 2011 года в форум Фильмы 2006-2008 года
Russian Mafia
 
Кто просматривает тему:

Форум Тема Автор Размер
BBC BBC: Horizon. Таинственные сигналы из космического пространства / Strange Signals from Outer Space! (Stephen Cooter) [2017 г., Документальный, научно-популярный, SATRip] skorpionN 739 MB
Da Vinci Learning Da Vinci Learning: BBC: Музыка простых чисел / The Music of the Primes [серии 1-3 из 3] (Kieran Smyth) [2006 г., Документальный, научно-познавательный, исследования, гипотезы, SATRip] skorpionN 1.1 GB
Da Vinci Learning Da Vinci Learning: BBC: Невидимое простым глазом / Beyond The Naked Eye [серии 1-3 из 3] (Rosalind Bain, Jessica Barrington) [2002 г., Документальный, научно-познавательный, исследования, гипотезы,... skorpionN 1.21 GB
Da Vinci Learning Da Vinci Learning: Плазма: новая заря / Plasma. Ultimate Aurora (Энди Касагранд / Andy Casagrande, Томас Лукас / Thomas Lucas) [2013 г., Документальный, научно-популярный, физика и пространство,... skorpionN 716 MB
S.T.A.L.K.E.R. S.T.A.L.K.E.R.: Call of Pripyat - Пространственная аномалия (1.001 (Update 4)) (2015) PC | RePack by SeregA-Lus Richi Keeper 3.68 GB
Научная и техническая литература Варвара Ахрименко - Дизайн малогабаритной квартиры. Правила увеличения пространства (2015) PDF достали все 26 MB
Медицина и здоровье Виктория Исаева | Как научиться понимать своего ребенка: 27 простых правил (2010) [FB2] sergej644 307 KB
Фильмы (HD Rips | 720p, 1080p) Внутреннее пространство / Innerspace (1987) BDRip 720p Russian Mafia 7.77 GB
Показать сообщения:    

Текущее время: Сегодня 19:38

Часовой пояс: GMT



Вы не можете начинать темы
Вы не можете отвечать на сообщения
Вы не можете редактировать свои сообщения
Вы не можете удалять свои сообщения
Вы не можете голосовать в опросах
Вы не можете прикреплять файлы к сообщениям
Вы не можете скачивать файлы