Прослушка / The Wire [S01-05] (2002–2008) BDRip 720p от GYN | Fox Crime

 
Автор Сообщение

Russian Mafia ®

Пол:

Стаж: 1 год 8 месяцев

Сообщений: 4257



Награды: 10 (Подробнее)

Mega Seeder 2 (Количество: 1) Top Releaser 3 (Количество: 1) Top Releaser 2 (Количество: 1)
Торрент-статистика

Создавать темы 23-Апр-2016 05:11

[Цитировать]

Прослушка / The Wire [S01-05] (2002–2008) BDRip 720p
Релиз от GYN
«A new case begins...»
Информация о сериале:
Название: Прослушка
Оригинальное название: The Wire
Год выхода: 2002 – 2008
Жанр: Детектив, Драма, Криминал, Триллер
Режиссёр: Джо Чаппелль / Joe Chappelle, Эрнест Р. Дикерсон / Ernest R. Dickerson, Кларк Джонсон / Clark Johnson
В ролях: Доминик Уэст, Джон Доумен, Дирдри Лавджой, Уенделл Пирс, Лэнс Реддик, Соня Сон, Сет Гиллиам, Доменик Ломбардоззи, Кларк Питерс, Андре Ройо, Майкл К. Уильямс, Джим Тру-Фрост, Фрэнки Фэйзон, Кори Паркер Робинсон, Делани Уильямс, Дж.Д. Уильямс, Вуд Харрис, Идрис Эльба, Майкл Кострофф, Трей Чейни, Исайя Уитлок мл., Майкл Салкони, Роберт Ф. Чю, Эдвард Т. Норрис, Хассан Джонсон
Сюжет сериала:
Подразделение полицейских в Балтиморе пытается с помощью специальных средств и мероприятий по прослушиванию и скрытой видеосъемке довести до суда расследование преступлений организованных преступных групп, которые занимаются незаконным распространением наркотиков.

Страна: США
Продолжительность: 60 x 00:58:00
Перевод: Русский профессиональный (многоголосый, закадровый - Fox Crime)
Субтитры: Отсутствуют
Информация о файле:
Качество: BDRip 720p
Файл: MKV
Кодек: MPEG-4 AVC, H264 codec
Видео: 1280 x 720, 16:9; 23.976 fps; ~ 6977 kbps; ~ 0.308 bit/pixel
Аудио: 48 kHz, AC3 Dolby Digital, 2.0 (L,R) ch, ~192.00 kbps avg
Размер файлов: 58 x 2.91 Gb, 1 x 3.84 Gb, 1 x 4.77 Gb
Общий размер: 177.5 Gb

MediaInfo

General
Unique ID : 208320513169048703171529809256400845804 (0x9CB9124983A6C65788275FC2EFA87BEC)
Complete name : F:DownloadsThe.Wire.RUS.BDRip.720p.h264.AC3.-GYNSeason_02The.Wire.s02e01.mkv
Format : Matroska
Format version : Version 4 / Version 2
File size : 2.91 GiB
Duration : 58mn 35s
Overall bit rate mode : Variable
Overall bit rate : 7 115 Kbps
Movie name : The Wire (2003) Season 2 Episode 1: Ebb Tide / Отлив
Encoded date : UTC 2015-06-23 12:36:34
Writing application : mkvmerge v6.9.1 ('Blue Panther') 32bit built on Apr 18 2014 18:15:44
Writing library : libebml v1.3.0 + libmatroska v1.4.1
Video
ID : 1
Format : AVC
Format/Info : Advanced Video Codec
Format profile : High@L4.1
Format settings, CABAC : Yes
Format settings, ReFrames : 6 frames
Codec ID : V_MPEG4/ISO/AVC
Duration : 58mn 35s
Bit rate mode : Variable
Bit rate : 6 781 Kbps
Maximum bit rate : 6 970 Kbps
Width : 1 280 pixels
Height : 720 pixels
Display aspect ratio : 16:9
Frame rate : 23.976 fps
Color space : YUV
Chroma subsampling : 4:2:0
Bit depth : 8 bits
Scan type : Progressive
Bits/(Pixel*Frame) : 0.307
Stream size : 2.78 GiB (95%)
Title : Encoded by GYN
Default : Yes
Forced : No
Audio
ID : 2
Format : AC-3
Format/Info : Audio Coding 3
Format profile : Dolby Digital
Mode extension : CM (complete main)
Codec ID : A_AC3
Duration : 58mn 35s
Bit rate mode : Constant
Bit rate : 192 Kbps
Channel(s) : 2 channels
Channel positions : Front: L R
Sampling rate : 48.0 KHz
Bit depth : 16 bits
Compression mode : Lossy
Stream size : 80.5 MiB (3%)
Title : MVO (Fox Crime)
Language : Russian
Default : Yes
Forced : No
Menu
00:00:00.000 : en:Chapter 01
00:04:58.923 : en:Chapter 02
00:12:42.428 : en:Chapter 03
00:19:34.756 : en:Chapter 04
00:27:03.788 : en:Chapter 05
00:35:50.773 : en:Chapter 06
00:43:33.193 : en:Chapter 07
00:52:13.755 : en:Chapter 08
00:57:18.601 : en:Chapter 09
ПРИЯТНОГО ПРОСМОТРА!
[Профиль] [ЛС]
Показать сообщения:    

Текущее время: Сегодня 02:31

Часовой пояс: GMT



Вы не можете начинать темы
Вы не можете отвечать на сообщения
Вы не можете редактировать свои сообщения
Вы не можете удалять свои сообщения
Вы не можете голосовать в опросах
Вы не можете прикреплять файлы к сообщениям
Вы не можете скачивать файлы