Пророчество. Трилогия / The Prophecy. Trilogy (1995-2000) BDRip 720p

 
Автор Сообщение

sergej644 ®

Пол:

Стаж: 4 года 11 месяцев

Сообщений: 6040

Откуда: Soviet Union



Награды: Нет

Торрент-статистика

Создавать темы 12-Ноя-2014 19:44

[Цитировать]

Пророчество / The Prophecy (1995) Год выпуска: 1995
Производство: USA / First Look International, NEO Motion Pictures, Overseas FilmGroup
Жанр: ужасы, фэнтези, триллер
Режиссер: Грегори Уайден
Актеры: Кристофер Уокен, Элиас Котеас, Вирджиния Мэдсен, Эрик Столц, Вигго Мортенсен, Аманда Пламмер, Морая Снайдер, Адам Голдберг, Стив Хитнер, Дж. К. Куин
Описание фильма: Гавриил послан на Землю забрать душу убитого полковника, чтобы уничтожить все человечество. Только полицейский из Лос-Анджелеса Томас и учительница из Аризоны Кэтрин пытаются ему помешать...
Перевод: профессиональный (многоголосый закадровый)
Вид субтитров: вшитые отключаемые
Язык субтитров: русские, английские

Продолжительность: 01:38:31
Качество: BDRip (720p)
Видео: MPEG-4 AVC/H.264, 1280 x 552, (2,35:1), 11 600 kbps, 24.000 fps, 0.685 b/px
Аудио # 1: AC3, 6 ch, 384 kbps, 48 000 Hz [многоголосый закадровый (Twister)]
Аудио # 2: AC3, 6 ch, 640 kbps, 48 000 Hz [оригинальный]

MediaInfo

Общее
Уникальный идентификатор : 187354764623271513345723560985319032674 (0x8CF337137DAE0CB99BEC2BE2AAA9C762)
Полное имя : D:Пророчество. Трилогия [BDRip] [720p][1995] Пророчество [BDRip] [720p].mkv
Формат : Matroska
Версия формата : Version 4 / Version 2
Размер файла : 8,87 Гбайт
Продолжительность : 1 ч. 38 м.
Общий поток : 12,9 Мбит/сек
Название фильма : Пророчество / The Prophecy (1995) BDRip [720p]
Дата кодирования : UTC 2014-11-10 11:47:51
Программа кодирования : mkvmerge v7.2.0 ('On Every Street') 32bit built on Sep 13 2014 15:42:11
Библиотека кодирования : libebml v1.3.0 + libmatroska v1.4.1
_STATISTICS_WRITING_APP : mkvmerge v7.2.0 ('On Every Street') 32bit built on Sep 13 2014 15:42:11
_STATISTICS_WRITING_DATE_UTC : 2014-11-10 11:47:51
_STATISTICS_TAGS : BPS DURATION NUMBER_OF_FRAMES NUMBER_OF_BYTES
DURATION : 01:37:04.069000000
NUMBER_OF_FRAMES : 916
NUMBER_OF_BYTES : 30421
Видео
Идентификатор : 1
Формат : AVC
Формат/Информация : Advanced Video Codec
Профиль формата : High@L4.1
Параметр CABAC формата : Да
Параметр ReFrames формата : 12 кадров
Идентификатор кодека : V_MPEG4/ISO/AVC
Продолжительность : 1 ч. 38 м.
Битрейт : 11,6 Мбит/сек
Ширина : 1280 пикселей
Высота : 552 пикселя
Соотношение сторон : 2,35:1
Режим частоты кадров : Постоянный
Частота кадров : 24,000 кадра/сек
Цветовое пространство : YUV
Субдискретизация насыщенности : 4:2:0
Битовая глубина : 8 бит
Тип развёртки : Прогрессивная
Бит/(Пиксели*Кадры) : 0.685
Размер потока : 7,99 Гбайт (90%)
Заголовок : [1995] Пророчество / The Prophecy [BDRip] [720p]
Библиотека кодирования : x264 core 142 r2431kMod ac76440
Настройки программы : cabac=1 / ref=12 / deblock=1:-3:-3 / analyse=0x3:0x133 / me=esa / subme=9 / psy=1 / fade_compensate=0.00 / psy_rd=0.90:0.00 / mixed_ref=1 / me_range=24 / chroma_me=1 / trellis=2 / 8x8dct=1 / cqm=0 / deadzone=21,11 / fast_pskip=0 / chroma_qp_offset=-2 / threads=6 / lookahead_threads=1 / sliced_threads=0 / nr=0 / decimate=1 / interlaced=0 / bluray_compat=0 / constrained_intra=0 / fgo=0 / bframes=9 / b_pyramid=2 / b_adapt=2 / b_bias=0 / direct=3 / weightb=1 / open_gop=0 / weightp=2 / keyint=250 / keyint_min=24 / scenecut=40 / intra_refresh=0 / rc_lookahead=60 / rc=crf / mbtree=0 / crf=19.0000 / qcomp=0.70 / qpmin=0 / qpmax=69 / qpstep=4 / vbv_maxrate=62500 / vbv_bufsize=78125 / crf_max=0.0 / nal_hrd=none / filler=0 / ip_ratio=1.30 / pb_ratio=1.20 / aq=1:0.80
Язык : English
Default : Да
Forced : Нет
Коэффициенты матрицы : BT.709
_STATISTICS_WRITING_APP : mkvmerge v7.2.0 ('On Every Street') 32bit built on Sep 13 2014 15:42:11
_STATISTICS_WRITING_DATE_UTC : 2014-11-10 11:47:51
_STATISTICS_TAGS : BPS DURATION NUMBER_OF_FRAMES NUMBER_OF_BYTES
DURATION : 01:37:58.584000000
NUMBER_OF_FRAMES : 141086
NUMBER_OF_BYTES : 8769989685
Аудио #1
Идентификатор : 2
Формат : AC-3
Формат/Информация : Audio Coding 3
Расширение режима : CM (complete main)
Параметр Endianness формата : Big
Идентификатор кодека : A_AC3
Продолжительность : 1 ч. 38 м.
Вид битрейта : Постоянный
Битрейт : 384 Кбит/сек
Каналы : 6 каналов
Расположение каналов : Front: L C R, Side: L R, LFE
Частота : 48,0 КГц
Битовая глубина : 16 бит
Метод сжатия : С потерями
Размер потока : 271 Мбайт (3%)
Заголовок : Многоголосый закадровый (Twister)
Язык : Russian
Default : Да
Forced : Нет
Аудио #2
Идентификатор : 3
Формат : AC-3
Формат/Информация : Audio Coding 3
Расширение режима : CM (complete main)
Параметр Endianness формата : Big
Идентификатор кодека : A_AC3
Продолжительность : 1 ч. 38 м.
Вид битрейта : Постоянный
Битрейт : 640 Кбит/сек
Каналы : 6 каналов
Расположение каналов : Front: L C R, Side: L R, LFE
Частота : 48,0 КГц
Битовая глубина : 16 бит
Метод сжатия : С потерями
Размер потока : 451 Мбайт (5%)
Заголовок : Оригинальный
Язык : English
Default : Нет
Forced : Нет
Текст #1
Идентификатор : 4
Формат : UTF-8
Идентификатор кодека : S_TEXT/UTF8
Идентификатор кодека/Информация : UTF-8 Plain Text
Заголовок : Русские
Язык : Russian
Default : Нет
Forced : Нет
Текст #2
Идентификатор : 5
Формат : UTF-8
Идентификатор кодека : S_TEXT/UTF8
Идентификатор кодека/Информация : UTF-8 Plain Text
Заголовок : English
Язык : English
Default : Нет
Forced : Нет
Меню
00:00:00.000 : en:00:00:00.000
00:06:08.125 : en:00:06:08.125
00:11:30.416 : en:00:11:30.416
00:17:35.166 : en:00:17:35.166
00:23:40.958 : en:00:23:40.958
00:29:35.791 : en:00:29:35.791
00:35:51.375 : en:00:35:51.375
00:41:20.708 : en:00:41:20.708
00:47:11.166 : en:00:47:11.166
00:53:26.541 : en:00:53:26.541
00:58:23.125 : en:00:58:23.125
01:02:35.250 : en:01:02:35.250
01:07:51.833 : en:01:07:51.833
01:14:01.291 : en:01:14:01.291
01:23:35.791 : en:01:23:35.791

Скриншоты

Пророчество 2 / The Prophecy II (1998) Год выпуска: 1998
Производство: USA / Dimension Films, NEO Motion Pictures, Overseas FilmGroup
Жанр: ужасы, фэнтези, триллер
Режиссер: Грег Спенс
Актеры: Кристофер Уокен, Расселл Вонг, Дженнифер Билз, Бриттани Мерфи, Эрик Робертс, Гленн Данциг, Стив Хитнер, Брюс Эбботт, Уильям Прэйл, Рени Виктор
Описание фильма: Война за небеса далека от окончания. Габриэль, самый могущественный из ангелов господних, возвращается на землю. Он не может похвастаться тем, что его положение достаточно прочно, и что армия ангелов ему беспрекословно подчиняется. Его страшная миссия — разрушить и уничтожить самое ценное творение Господа — человечество...
Перевод: профессиональный (многоголосый закадровый)
Вид субтитров: вшитые отключаемые
Язык субтитров: русские, английские

Продолжительность: 01:23:46
Качество: BDRip (720p)
Видео: MPEG-4 AVC/H.264, 1280 x 694, (1,85:1), 9 646 kbps, 24.000 fps, 0.535 b/px
Аудио # 1: AC3, 6 ch, 384 kbps, 48 000 Hz [многоголосый закадровый (Premier Digital)]
Аудио # 2: FLAC, 2 ch, 500 kbps, 48 Hz/16-bit [оригинальный]

MediaInfo

Общее
Уникальный идентификатор : 188733677089428962702096910025931455762 (0x8DFCC8B5ABDB2CB9BD0B27AE64497D12)
Полное имя : D:Пророчество. Трилогия [BDRip] [720p][1998] Пророчество 2 [BDRip] [720p].mkv
Формат : Matroska
Версия формата : Version 4 / Version 2
Размер файла : 6,17 Гбайт
Продолжительность : 1 ч. 23 м.
Режим общего битрейта : Переменный
Общий поток : 10,5 Мбит/сек
Название фильма : Пророчество 2 / The Prophecy II (1998) BDRip [720p]
Дата кодирования : UTC 2014-11-10 11:58:08
Программа кодирования : mkvmerge v7.2.0 ('On Every Street') 32bit built on Sep 13 2014 15:42:11
Библиотека кодирования : libebml v1.3.0 + libmatroska v1.4.1
DURATION : 01:17:43.709000000
NUMBER_OF_FRAMES : 680
NUMBER_OF_BYTES : 22375
_STATISTICS_WRITING_APP : mkvmerge v7.2.0 ('On Every Street') 32bit built on Sep 13 2014 15:42:11
_STATISTICS_WRITING_DATE_UTC : 2014-11-10 11:58:08
_STATISTICS_TAGS : BPS DURATION NUMBER_OF_FRAMES NUMBER_OF_BYTES
Видео
Идентификатор : 1
Формат : AVC
Формат/Информация : Advanced Video Codec
Профиль формата : High@L4.1
Параметр CABAC формата : Да
Параметр ReFrames формата : 9 кадров
Идентификатор кодека : V_MPEG4/ISO/AVC
Продолжительность : 1 ч. 23 м.
Ширина : 1280 пикселей
Высота : 694 пикселя
Соотношение сторон : 1,85:1
Режим частоты кадров : Постоянный
Частота кадров : 24,000 кадра/сек
Цветовое пространство : YUV
Субдискретизация насыщенности : 4:2:0
Битовая глубина : 8 бит
Тип развёртки : Прогрессивная
Заголовок : [1998] Пророчество 2 / The Prophecy II [BDRip] [720p]
Библиотека кодирования : x264 core 142 r2431kMod ac76440
Настройки программы : cabac=1 / ref=9 / deblock=1:-3:-3 / analyse=0x3:0x133 / me=esa / subme=10 / psy=1 / fade_compensate=0.00 / psy_rd=1.10:0.00 / mixed_ref=1 / me_range=24 / chroma_me=1 / trellis=2 / 8x8dct=1 / cqm=0 / deadzone=21,11 / fast_pskip=0 / chroma_qp_offset=-2 / threads=6 / lookahead_threads=1 / sliced_threads=0 / nr=0 / decimate=1 / interlaced=0 / bluray_compat=0 / constrained_intra=0 / fgo=0 / bframes=12 / b_pyramid=2 / b_adapt=2 / b_bias=0 / direct=3 / weightb=1 / open_gop=0 / weightp=2 / keyint=250 / keyint_min=24 / scenecut=40 / intra_refresh=0 / rc_lookahead=60 / rc=crf / mbtree=0 / crf=16.7500 / qcomp=0.70 / qpmin=0 / qpmax=69 / qpstep=4 / vbv_maxrate=62500 / vbv_bufsize=78125 / crf_max=0.0 / nal_hrd=none / filler=0 / ip_ratio=1.30 / pb_ratio=1.20 / aq=1:0.80
Язык : English
Default : Да
Forced : Нет
Коэффициенты матрицы : BT.709
colour_range : Limited
DURATION : 01:23:46.000000000
NUMBER_OF_FRAMES : 120624
NUMBER_OF_BYTES : 6064480394
_STATISTICS_WRITING_APP : mkvmerge v7.2.0 ('On Every Street') 32bit built on Sep 13 2014 15:42:11
_STATISTICS_WRITING_DATE_UTC : 2014-11-10 11:58:08
_STATISTICS_TAGS : BPS DURATION NUMBER_OF_FRAMES NUMBER_OF_BYTES
Аудио #1
Идентификатор : 2
Формат : AC-3
Формат/Информация : Audio Coding 3
Расширение режима : CM (complete main)
Параметр Endianness формата : Big
Идентификатор кодека : A_AC3
Продолжительность : 1 ч. 23 м.
Вид битрейта : Постоянный
Битрейт : 384 Кбит/сек
Каналы : 6 каналов
Расположение каналов : Front: L C R, Side: L R, LFE
Частота : 48,0 КГц
Битовая глубина : 16 бит
Метод сжатия : С потерями
Размер потока : 230 Мбайт (4%)
Заголовок : Многоголосый закадровый (Premier Digital)
Язык : Russian
Default : Да
Forced : Нет
Аудио #2
Идентификатор : 3
Формат : FLAC
Формат/Информация : Free Lossless Audio Codec
Идентификатор кодека : A_FLAC
Продолжительность : 1 ч. 23 м.
Вид битрейта : Переменный
Каналы : 2 канала
Частота : 48,0 КГц
Битовая глубина : 16 бит
Заголовок : Оригинальный
Библиотека кодирования : libFLAC 1.2.1 (UTC 2007-09-17)
Язык : English
Default : Нет
Forced : Нет
Текст #1
Идентификатор : 4
Формат : UTF-8
Идентификатор кодека : S_TEXT/UTF8
Идентификатор кодека/Информация : UTF-8 Plain Text
Заголовок : Русские
Язык : Russian
Default : Нет
Forced : Нет
Текст #2
Идентификатор : 5
Формат : UTF-8
Идентификатор кодека : S_TEXT/UTF8
Идентификатор кодека/Информация : UTF-8 Plain Text
Заголовок : English
Язык : English
Default : Нет
Forced : Нет
Меню
00:00:00.000 : en:00:00:00.000
00:03:17.250 : en:00:03:17.250
00:05:48.832 : en:00:05:48.832
00:10:40.707 : en:00:10:40.707
00:17:46.583 : en:00:17:46.583
00:23:15.708 : en:00:23:15.708
00:28:27.500 : en:00:28:27.500
00:33:53.000 : en:00:33:53.000
00:38:17.166 : en:00:38:17.166
00:45:24.500 : en:00:45:24.500
00:51:11.375 : en:00:51:11.375
00:57:08.333 : en:00:57:08.333
01:03:24.791 : en:01:03:24.791
01:09:56.875 : en:01:09:56.875
01:17:04.000 : en:01:17:04.000

Скриншоты

Пророчество 3: Вознесение / The Prophecy 3: The Ascent (2000) Год выпуска: 2000
Производство: USA / Dimension Films
Жанр: ужасы, фэнтези, триллер
Режиссер: Патрик Люссье
Актеры: Кристофер Уокен, Винсент Спано, Дэйв Буццотта, Кэйрен Батлер, Стив Хитнер, Брэд Дуриф, Скотт Клевердон, Джек МакГи, Сандра Эллис Лэфферти, Марк Принц Эдвардс
Описание фильма: Война ангелов не закончилась. Восставшие намеривались изменить мировоздание во имя нового Властителя — Пириела. И на их пути оставалась последняя преграда — Дэниел, сын ангела и земной женщины. Именно его должен разыскать и уничтожить посланец небес Зофаэл. Судьба человечества зависела от единственного существа, но не настолько, что бы в одиночку противостоять воинам неба…
Перевод: профессиональный (многоголосый закадровый)
Вид субтитров: вшитые отключаемые
Язык субтитров: русские, английские

Продолжительность: 01:24:27
Качество: BDRip (720p)
Видео: MPEG-4 AVC/H.264, 1280 x 692, (1,85:1), 7 523 kbps, 24.000 fps, 0.354 b/px
Аудио # 1: AC3, 6 ch, 384 kbps, 48 000 Hz [многоголосый закадровый (Videogram)]
Аудио # 2: AC3, 6 ch, 640 kbps, 48 000 Hz [оригинальный]

MediaInfo

Общее
Уникальный идентификатор : 178974463765830586587736669418320212279 (0x86A53A57F6D1669EBE66C616466AB137)
Полное имя : D:Пророчество. Трилогия [BDRip] [720p][2000] Пророчество 3. Вознесение [BDRip] [720p].mkv
Формат : Matroska
Версия формата : Version 4 / Version 2
Размер файла : 5,14 Гбайт
Продолжительность : 1 ч. 24 м.
Общий поток : 8720 Кбит/сек
Название фильма : Пророчество 3: Вознесение / The Prophecy 3: The Ascent (2000) BDRip [720p]
Дата кодирования : UTC 2014-11-10 12:05:10
Программа кодирования : mkvmerge v7.2.0 ('On Every Street') 32bit built on Sep 13 2014 15:42:11
Библиотека кодирования : libebml v1.3.0 + libmatroska v1.4.1
DURATION : 01:17:36.958000000
NUMBER_OF_FRAMES : 509
NUMBER_OF_BYTES : 17240
_STATISTICS_WRITING_APP : mkvmerge v7.2.0 ('On Every Street') 32bit built on Sep 13 2014 15:42:11
_STATISTICS_WRITING_DATE_UTC : 2014-11-10 12:05:10
_STATISTICS_TAGS : BPS DURATION NUMBER_OF_FRAMES NUMBER_OF_BYTES
Видео
Идентификатор : 1
Формат : AVC
Формат/Информация : Advanced Video Codec
Профиль формата : High@L4.1
Параметр CABAC формата : Да
Параметр ReFrames формата : 9 кадров
Идентификатор кодека : V_MPEG4/ISO/AVC
Продолжительность : 1 ч. 24 м.
Битрейт : 7523 Кбит/сек
Ширина : 1280 пикселей
Высота : 692 пикселя
Соотношение сторон : 1,85:1
Режим частоты кадров : Постоянный
Частота кадров : 24,000 кадра/сек
Цветовое пространство : YUV
Субдискретизация насыщенности : 4:2:0
Битовая глубина : 8 бит
Тип развёртки : Прогрессивная
Бит/(Пиксели*Кадры) : 0.354
Размер потока : 4,44 Гбайт (86%)
Заголовок : [2000] Пророчество 3: Вознесение / The Prophecy 3: The Ascent [BDRip] [720p]
Библиотека кодирования : x264 core 142 r2431kMod ac76440
Настройки программы : cabac=1 / ref=9 / deblock=1:-3:-3 / analyse=0x3:0x133 / me=esa / subme=10 / psy=1 / fade_compensate=0.00 / psy_rd=1.00:0.00 / mixed_ref=1 / me_range=24 / chroma_me=1 / trellis=2 / 8x8dct=1 / cqm=0 / deadzone=21,11 / fast_pskip=0 / chroma_qp_offset=-2 / threads=6 / lookahead_threads=1 / sliced_threads=0 / nr=0 / decimate=1 / interlaced=0 / bluray_compat=0 / constrained_intra=0 / fgo=0 / bframes=9 / b_pyramid=2 / b_adapt=2 / b_bias=0 / direct=3 / weightb=1 / open_gop=0 / weightp=2 / keyint=250 / keyint_min=24 / scenecut=40 / intra_refresh=0 / rc_lookahead=60 / rc=crf / mbtree=0 / crf=17.0000 / qcomp=0.70 / qpmin=0 / qpmax=69 / qpstep=4 / vbv_maxrate=62500 / vbv_bufsize=78125 / crf_max=0.0 / nal_hrd=none / filler=0 / ip_ratio=1.30 / pb_ratio=1.20 / aq=1:0.80
Язык : English
Default : Да
Forced : Нет
Коэффициенты матрицы : BT.709
colour_range : Limited
DURATION : 01:24:27.334000000
NUMBER_OF_FRAMES : 121616
NUMBER_OF_BYTES : 4873421048
_STATISTICS_WRITING_APP : mkvmerge v7.2.0 ('On Every Street') 32bit built on Sep 13 2014 15:42:11
_STATISTICS_WRITING_DATE_UTC : 2014-11-10 12:05:10
_STATISTICS_TAGS : BPS DURATION NUMBER_OF_FRAMES NUMBER_OF_BYTES
Аудио #1
Идентификатор : 2
Формат : AC-3
Формат/Информация : Audio Coding 3
Расширение режима : CM (complete main)
Параметр Endianness формата : Big
Идентификатор кодека : A_AC3
Продолжительность : 1 ч. 24 м.
Вид битрейта : Постоянный
Битрейт : 384 Кбит/сек
Каналы : 6 каналов
Расположение каналов : Front: L C R, Side: L R, LFE
Частота : 48,0 КГц
Битовая глубина : 16 бит
Метод сжатия : С потерями
Размер потока : 232 Мбайт (4%)
Заголовок : Многоголосый закадровый (Videogram)
Язык : Russian
Default : Да
Forced : Нет
Аудио #2
Идентификатор : 3
Формат : AC-3
Формат/Информация : Audio Coding 3
Расширение режима : CM (complete main)
Параметр Endianness формата : Big
Идентификатор кодека : A_AC3
Продолжительность : 1 ч. 24 м.
Вид битрейта : Постоянный
Битрейт : 640 Кбит/сек
Каналы : 6 каналов
Расположение каналов : Front: L C R, Side: L R, LFE
Частота : 48,0 КГц
Битовая глубина : 16 бит
Метод сжатия : С потерями
Размер потока : 387 Мбайт (7%)
Заголовок : Оригинальный
Язык : English
Default : Нет
Forced : Нет
Текст #1
Идентификатор : 4
Формат : UTF-8
Идентификатор кодека : S_TEXT/UTF8
Идентификатор кодека/Информация : UTF-8 Plain Text
Заголовок : Русские
Язык : Russian
Default : Нет
Forced : Нет
Текст #2
Идентификатор : 5
Формат : UTF-8
Идентификатор кодека : S_TEXT/UTF8
Идентификатор кодека/Информация : UTF-8 Plain Text
Заголовок : English
Язык : English
Default : Нет
Forced : Нет
Меню
00:00:00.000 : en:00:00:00.000
00:06:10.708 : en:00:06:10.708
00:10:41.000 : en:00:10:41.000
00:14:56.708 : en:00:14:56.708
00:20:44.000 : en:00:20:44.000
00:24:51.083 : en:00:24:51.083
00:29:44.250 : en:00:29:44.250
00:34:22.625 : en:00:34:22.625
00:38:22.875 : en:00:38:22.875
00:43:59.416 : en:00:43:59.416
00:49:09.000 : en:00:49:09.000
00:56:00.041 : en:00:56:00.041
01:00:31.916 : en:01:00:31.916
01:05:51.416 : en:01:05:51.416
01:17:51.500 : en:01:17:51.500

Скриншоты

[Профиль] [ЛС]
Кто просматривает тему:

Форум Тема Автор Размер
Программы [Разное] Тайны великих пророков v1.0 [Android 2.0+, RUS] TorrentFilm 5 MB
Зарубежные мультфильмы Пророк / The Prophet (2014) HDRip | L BOSS 1.46 GB
Фильмы 2009 года Пророк / Un prophete (Жак Одиар / Jacques Audiard) [2009, Франция, Италия, Драма, криминал, BDRip-AVC] MVO (Велес) TorrentFilm 2.18 GB
Фильмы 2009 года Пророк / Un prophete (Жак Одиар / Jacques Audiard) [2009, Франция, Италия, Драма, криминал, HDRip] Dub TorrentFilm 1.45 GB
Фильмы (HD Rips | 720p, 1080p) Пророк вне закона: Уоррен Джеффс / Outlaw Prophet: Warren Jeffs (2014) WEB-DL 720p | ATV | P iTunes sergej644 2.82 GB
Отечественные мультфильмы Пророки и уроки (Вячеслав Котеночкин) [1967, мультипликационный фильм-плакат, DVDRip] Eng hardsub TorrentFilm 175 MB
Фильмы 2015 года Пророчество / Prophecy / Yokokuhan (2015) HDRip | L достали все 1.45 GB
Фильмы (HD Rips | 720p, 1080p) Пророчество / The Prophecy (Грегори Уайден / Gregory Widen) [1995, США, ужасы, фэнтези, триллер, BDRemux 1080p] DVO (Twister) + MVO (МиксМедиа) + AVO (Гаврилов) + Sub Rus, Eng + Original Eng bot 20.11 GB
Показать сообщения:    

Текущее время: Сегодня 10:51

Часовой пояс: GMT



Вы не можете начинать темы
Вы не можете отвечать на сообщения
Вы не можете редактировать свои сообщения
Вы не можете удалять свои сообщения
Вы не можете голосовать в опросах
Вы не можете прикреплять файлы к сообщениям
Вы не можете скачивать файлы