Пророк / Un prophete (Жак Одиар / Jacques Audiard) [2009, Франция, Италия, Драма, криминал, HDRip] Dub

 
Автор Сообщение

TorrentFilm ®

Пол:

Стаж: 2 года

Сообщений: 7741



Награды: Нет

Торрент-статистика

Создавать темы 26-Апр-2015 00:03

[Цитировать]

Пророк / Un prophete
Страна: Франция, Италия
Жанр: Драма, криминал
Год выпуска: 2009
Продолжительность: 02:35:22
Перевод: Профессиональный (дублированный)
Cубтитры: нет
Режиссер: Жак Одиар / Jacques Audiard
В ролях: Тахар Рахим, Нильс Ареструп, Адель Беншериф, Хайсем Якуби, Реда Катеб, Жан-Филипп Риччи, Жиль Коэн, Антуан Баслер, Лейла Бехти, Пьер Леччия, Фуед Насса, Жан-Эмманюэль Паньи, Фридерик Грациани, Слиман Дази, Рабах Лусиф, Серж Бутлерофф, Эрве Темиме
Описание: Приговоренный к шести годам тюрьмы, Малик Эль Джебена кажется на фоне других заключенных самым «зеленым» и самым уязвимым. Ему 19 лет. Он не умеет ни писать, ни читать. За стенами тюрьмы у него нет близких. Все меняется, когда Лучано, лидер авторитетной банды корсиканцев, решает поручить Малику ряд опасных и рискованных миссий… Выполнение любой из этих «миссий» под прессингом корсиканцев могло бы сломить кого угодно, но не его. Каждое задание закаляет Малика. Он быстро учится жизни в новом для себя мире. Завоевывает доверие корсиканцев и мусульман. И вскоре начинает вынашивать собственные дерзкие планы…
Релиз группы:

Рип от: maygli
Мировая премьера: 16 мая 2009
Российская премьера: 8 октября 2009
Качество видео: HDRip
Формат видео: AVI
Видео: Xvid, 720x384, 23,976 кадра/сек, ~1139 kbps
Аудио: AC3, 48,0 КГц, 192 kbps, 2 канала

MediaInfo

Общее
Полное имя : D:\Рипы\A.Prophet.2009.BDRip.avi
Формат : AVI
Формат/Информация : Audio Video Interleave
Размер файла : 1,45 Гбайт
Продолжительность : 2 ч. 35 м.
Общий поток : 1340 Кбит/сек
Название фильма : A.Prophet.2009.BDRip
Режиссёр : rip by maygli
Программа кодирования : VirtualDubModRus 1.5.10.2 (build 2542/release)
Правообладатель : ... (RG Rulya74)
Видео
Идентификатор : 0
Формат : MPEG-4 Visual
Профиль формата : Advanced Simple@L5
Параметр BVOP формата : 1
Параметр QPel формата : Нет
Параметр GMC формата : Без точки перехода
Параметр матрицы формата : Выборочная
Идентификатор кодека : XVID
Идентификатор кодека/Подсказка : XviD
Продолжительность : 2 ч. 35 м.
Битрейт : 1139 Кбит/сек
Ширина : 720 пикселей
Высота : 384 пикселя
Соотношение сторон : 1,85:1
Частота кадров : 23,976 кадра/сек
Цветовое пространство : YUV
Субдискретизация насыщенности : 4:2:0
Битовая глубина : 8 бит
Тип развёртки : Прогрессивная
Метод сжатия : С потерями
Бит/(Пиксели*Кадры) : 0.172
Размер потока : 1,24 Гбайт (85%)
Библиотека кодирования : XviD 65
Аудио
Идентификатор : 1
Формат : AC-3
Формат/Информация : Audio Coding 3
Расширение режима : CM (complete main)
Параметр Endianness формата : Big
Идентификатор кодека : 2000
Продолжительность : 2 ч. 35 м.
Вид битрейта : Постоянный
Битрейт : 192 Кбит/сек
Каналы : 2 канала
Расположение каналов : Front: L R
Частота : 48,0 КГц
Битовая глубина : 16 бит
Метод сжатия : С потерями
Размер потока : 213 Мбайт (14%)
Выравнивание : Разделение по промежуткам
Продолжительность промежутка : 42 мс. (1,00 видеокадр)
Время предзагрузки промежутка : 500 мс.

Скриншот c названием фильма

Скриншоты

Присутствует ненормативная лексика!
[Профиль] [ЛС]

Создавать темы 06-Авг-2015 22:35 (спустя 3 месяца 10 дней)

Топик был перенесен из форума Фильмы до 2014 года в форум Фильмы до 2012 года
sergej644
 

Создавать темы 12-Июн-2016 08:49 (спустя 1 год 1 месяц)

Топик был перенесен из форума Фильмы 2011 года в форум Фильмы 2009 года
Russian Mafia
 
Кто просматривает тему:

Форум Тема Автор Размер
Программы [Разное] Тайны великих пророков v1.0 [Android 2.0+, RUS] TorrentFilm 5 MB
Зарубежные мультфильмы Пророк / The Prophet (2014) HDRip | L BOSS 1.46 GB
Фильмы 2009 года Пророк / Un prophete (Жак Одиар / Jacques Audiard) [2009, Франция, Италия, Драма, криминал, BDRip-AVC] MVO (Велес) TorrentFilm 2.18 GB
Фильмы (HD Rips | 720p, 1080p) Пророк вне закона: Уоррен Джеффс / Outlaw Prophet: Warren Jeffs (2014) WEB-DL 720p | ATV | P iTunes sergej644 2.82 GB
Отечественные мультфильмы Пророки и уроки (Вячеслав Котеночкин) [1967, мультипликационный фильм-плакат, DVDRip] Eng hardsub TorrentFilm 175 MB
Фильмы 2015 года Пророчество / Prophecy / Yokokuhan (2015) HDRip | L достали все 1.45 GB
Фильмы (HD Rips | 720p, 1080p) Пророчество / The Prophecy (Грегори Уайден / Gregory Widen) [1995, США, ужасы, фэнтези, триллер, BDRemux 1080p] DVO (Twister) + MVO (МиксМедиа) + AVO (Гаврилов) + Sub Rus, Eng + Original Eng bot 20.11 GB
Фильмы (HD Rips | 720p, 1080p) Пророчество. Трилогия / The Prophecy. Trilogy (1995-2000) BDRip 720p sergej644 20.18 GB
Показать сообщения:    

Текущее время: Сегодня 08:03

Часовой пояс: GMT



Вы не можете начинать темы
Вы не можете отвечать на сообщения
Вы не можете редактировать свои сообщения
Вы не можете удалять свои сообщения
Вы не можете голосовать в опросах
Вы не можете прикреплять файлы к сообщениям
Вы не можете скачивать файлы