Пророк / Un prophete (Жак Одиар / Jacques Audiard) [2009, Франция, Италия, Драма, криминал, BDRip-AVC] MVO (Велес)

 
Автор Сообщение

TorrentFilm ®

Пол:

Стаж: 2 года

Сообщений: 7741



Награды: Нет

Торрент-статистика

Создавать темы 15-Апр-2015 00:04

[Цитировать]

Пророк / Un prophete
Страна: Франция , Италия
Жанр: Драма, криминал
Год выпуска: 2009
Продолжительность: 02:35:04
Перевод: Профессиональный (многоголосый закадровый) Велес
Cубтитры: нет
Режиссер: Жак Одиар / Jacques Audiard
В ролях: Тахар Рахим, Нильс Ареструп, Адель Беншериф, Хайсем Якуби, Реда Катеб, Жан-Филипп Риччи, Жиль Коэн, Антуан Баслер, Лейла Бехти, Пьер Леччия, Фуед Насса, Жан-Эмманюэль Паньи, Фридерик Грациани, Слиман Дази, Рабах Лусиф, Серж Бутлерофф, Эрве Темиме
Описание: Приговоренный к шести годам тюрьмы, Малик Эль Джебена кажется на фоне других заключенных самым «зеленым» и самым уязвимым. Ему 19 лет. Он не умеет ни писать, ни читать. За стенами тюрьмы у него нет близких. Все меняется, когда Лучано, лидер авторитетной банды корсиканцев, решает поручить Малику ряд опасных и рискованных миссий… Выполнение любой из этих «миссий» под прессингом корсиканцев могло бы сломить кого угодно, но не его. Каждое задание закаляет Малика. Он быстро учится жизни в новом для себя мире. Завоевывает доверие корсиканцев и мусульман. И вскоре начинает вынашивать собственные дерзкие планы…

Качество видео: BDRip-AVC
Формат видео: MKV
Видео: AVC, 1152x624, 16:9, 24,000 кадра/сек, 448 Кбит/с
Аудио: AC3, 48,0 КГц, 448 Кбит/сек, 6 ch

MediaInfo

Общее
Уникальный идентификатор : 244274024472741659791137374176187965476 (0xB7C5774114ABB820BD67DC94EDDAE024)
Полное имя : C:\NNM\Пророк\Prorok 2009 BDRip AVC.mkv
Формат : Matroska
Версия формата : Version 4 / Version 2
Размер файла : 2,18 Гбайт
Продолжительность : 2 ч. 35 м.
Общий поток : 2017 Кбит/сек
Программа кодирования : mkvmerge v6.5.0 ('Isn't she lovely') built on Oct 20 2013 12:50:05
Библиотека кодирования : libebml v1.3.0 + libmatroska v1.4.1
Видео
Идентификатор : 1
Формат : AVC
Формат/Информация : Advanced Video Codec
Профиль формата : High@L4.1
Параметр CABAC формата : Да
Параметр ReFrames формата : 7 кадров
Идентификатор кодека : V_MPEG4/ISO/AVC
Продолжительность : 2 ч. 35 м.
Битрейт : 1568 Кбит/сек
Ширина : 1152 пикселя
Высота : 624 пикселя
Соотношение сторон : 16:9
Частота кадров : 24,000 кадра/сек
Цветовое пространство : YUV
Субдискретизация насыщенности : 4:2:0
Битовая глубина : 8 бит
Тип развёртки : Прогрессивная
Бит/(Пиксели*Кадры) : 0.091
Размер потока : 1,66 Гбайт (76%)
Библиотека кодирования : x264 core 140 r2377 1ca7bb9
Настройки программы : cabac=1 / ref=8 / deblock=1:-3:-3 / analyse=0x3:0x133 / me=umh / subme=11 / psy=1 / psy_rd=1.10:0.05 / mixed_ref=1 / me_range=38 / chroma_me=1 / trellis=2 / 8x8dct=1 / cqm=0 / deadzone=21,11 / fast_pskip=0 / chroma_qp_offset=-2 / threads=3 / lookahead_threads=1 / sliced_threads=0 / nr=0 / decimate=0 / interlaced=0 / bluray_compat=0 / constrained_intra=0 / bframes=8 / b_pyramid=1 / b_adapt=2 / b_bias=0 / direct=3 / weightb=1 / open_gop=0 / weightp=1 / keyint=250 / keyint_min=24 / scenecut=40 / intra_refresh=0 / rc_lookahead=40 / rc=2pass / mbtree=1 / bitrate=1568 / ratetol=1.0 / qcomp=0.60 / qpmin=0 / qpmax=51 / qpstep=4 / cplxblur=22.0 / qblur=0.5 / vbv_maxrate=65000 / vbv_bufsize=75000 / nal_hrd=none / filler=0 / ip_ratio=1.30 / aq=1:0.80
Язык : English
Default : Да
Forced : Нет
Аудио
Идентификатор : 2
Формат : AC-3
Формат/Информация : Audio Coding 3
Расширение режима : CM (complete main)
Идентификатор кодека : A_AC3
Продолжительность : 2 ч. 35 м.
Вид битрейта : Постоянный
Битрейт : 448 Кбит/сек
Каналы : 6 каналов
Расположение каналов : Front: L C R, Side: L R, LFE
Частота : 48,0 КГц
Битовая глубина : 16 бит
Метод сжатия : С потерями
Размер потока : 497 Мбайт (22%)
Заголовок : MVO Veles
Язык : Russian
Default : Да
Forced : Нет
Меню
00:00:00.000 : en:00:00:00.000
00:00:46.875 : en:00:00:46.875
00:04:49.000 : en:00:04:49.000
00:13:57.875 : en:00:13:57.875
00:23:55.000 : en:00:23:55.000
00:30:38.125 : en:00:30:38.125
00:38:26.000 : en:00:38:26.000
00:41:50.000 : en:00:41:50.000
00:48:12.000 : en:00:48:12.000
00:56:55.000 : en:00:56:55.000
01:03:17.000 : en:01:03:17.000
01:11:04.625 : en:01:11:04.625
01:21:03.083 : en:01:21:03.083
01:31:27.500 : en:01:31:27.500
01:41:11.000 : en:01:41:11.000
01:51:45.541 : en:01:51:45.541
01:57:20.000 : en:01:57:20.000
02:08:13.708 : en:02:08:13.708
02:15:38.791 : en:02:15:38.791
02:18:31.000 : en:02:18:31.000
02:22:13.583 : en:02:22:13.583
02:22:57.541 : en:02:22:57.541
02:28:47.625 : en:02:28:47.625

Скриншот c названием фильма

Скриншоты

[Профиль] [ЛС]

Создавать темы 06-Авг-2015 22:37 (спустя 3 месяца 21 день)

Топик был перенесен из форума Фильмы до 2014 года в форум Фильмы до 2012 года
sergej644
 

Создавать темы 12-Июн-2016 08:49 (спустя 1 год 1 месяц)

Топик был перенесен из форума Фильмы 2011 года в форум Фильмы 2009 года
Russian Mafia
 
Показать сообщения:    

Текущее время: Сегодня 08:58

Часовой пояс: GMT



Вы не можете начинать темы
Вы не можете отвечать на сообщения
Вы не можете редактировать свои сообщения
Вы не можете удалять свои сообщения
Вы не можете голосовать в опросах
Вы не можете прикреплять файлы к сообщениям
Вы не можете скачивать файлы