Пророк вне закона: Уоррен Джеффс / Outlaw Prophet: Warren Jeffs (2014) WEB-DL 720p | ATV | P iTunes

 
Автор Сообщение

sergej644 ®

Пол:

Стаж: 4 года 11 месяцев

Сообщений: 6041

Откуда: Soviet Union



Награды: Нет

Торрент-статистика

Создавать темы 10-Фев-2015 11:17

[Цитировать]

Пророк вне закона: Уоррен Джеффс / Outlaw Prophet: Warren Jeffs (2014) WEB-DL 720p | ATV | P iTunes
- Год выпуска: 2014
Производство: США / © 2014 Sony Pictures Television Inc. All Rights Reserved.
Жанр: драма, биография
Режиссер: Гэбриел Рэндж
В ролях: Дэвид Кит, Молли Паркер, Джои Кинг, Мартин Ландау, Сабина Гадеки, Бритт Робертсон, Алекс Найт, Дженни Гэбриэлль, Аарон МакФерсон, Брайан Чатлиен, Виктор Тэлмадж, Джейсон Дуглас, Эб Лоттимер, Уилл Бьюкэнэн
Описание:
Основанная на реальных событиях драма о жизни скандально известного Джеффса Уоррена – многоженца, педофила, расиста и по совместительству экс-президента Фундаменталистской Церкви Иисуса Христа Святых Последних Дней. Продолжатель традиций мормонов и дела своего отца, в 2002 году Джеффс Уоррен возглавил церковь, а затем, четыре годы спустя, и список наиболее разыскиваемых лиц ФБР. Почти два года за ним охотились власти, обвинившие Уоррена в насилии над несовершеннолетними, в том числе и в инцесте. 25 сентября 2007 года состоялся арест пророка – его приговорили к 10 годам тюрьмы, но затем приговор ужесточили: Уоррен получил пожизненное заключение, 20 лет сверху и штраф в 10 000 долларов.

Продолжительность: 01:27:32
Перевод: Профессиональный (многоголосый закадровый) [iTunes]
Cубтитры: Английские
Качество: WEB-DL [720p]
Видео: MPEG-4 AVC/H.264, 1280x718 (16:9), 3 900 kbps, 23.976 fps
Аудио 1: Русский/Профессиональный (многоголосый закадровый), AAC / 2.0 / 162 Kbps / 48.0 KHz
Аудио 2: Русский/Профессиональный (многоголосый закадровый), AC3 / 5.1 / 384 Kbps / 48.0 KHz
Аудио 3: Английский/Оригинальный, AAC / 2.0 / 154 Kbps / 48.0 KHz-

iTunes Meta Tags

[code]
Sort Name: Outlaw Prophet: Warren Jeffs
XID: Apple:vendor_id:2014-tt3756722
Content ID: 915269228
Copyright: © 2014 Sony Pictures Television Inc. All Rights Reserved.
ScreenWriters: Alyson Evans, Bryce Kass, Steve Kornacki, Art Monterastelli, Gabriel Range, Stephen Singular
Producers: Neil Meron, Lorenzo O'Brien, Ioanna Vassiliadis Willis
Director: Gabriel Range
Cast: Joey King, Tony Goldwyn (Warren Jeffs), Martin Landau (Rulon Jeffs), Alex Knight (Isaac Jeffs), Molly Parker
Rating: 15
Long Deion: Основанная на реальных событиях драма о жизни скандально известного Джеффса Уоррена – многоженца, педофила, расиста и по совместительству экс-президента Фундаменталистской Церкви Иисуса Христа Святых Последних Дней. Продолжатель традиций мормонов и дела своего отца, в 2002 году Джеффс Уоррен возглавил церковь, а затем, четыре годы спустя, и список наиболее разыскиваемых лиц ФБР. Почти два года за ним охотились власти, обвинившие Уоррена в насилии над несовершеннолетними, в том числе и в инцесте. 25 сентября 2007 года состоялся арест пророка – его приговорили к 10 годам тюрьмы, но затем приговор ужесточили: Уоррен получил пожизненное заключение, 20 лет сверху и штраф в 10 000 долларов.
Deion: Основанная на реальных событиях драма о жизни скандально известного Джеффса Уоррена – многоженца, педофила, расиста и по совместительству экс-президента Фундаменталистской Церкви Иисуса Христа Святых Последних Дней.
Release Date: 2014-06-28T07:00:00Z
Genre: Drama
Artist: Gabriel Range
Name: Пророк вне закона: Уоррен Джеффс

MediaInfo

General
Complete name : C:DownloadsOutlaw.Prophet-Warren.Jeffs.2014.WEB-DL.720p.P.m4v
Format : MPEG-4
Codec ID : M4V
File size : 2.82 GiB
Duration : 1h 27mn
Overall bit rate mode : Variable
Overall bit rate : 4 618 Kbps
Movie name : Пророк вне закона: Уоррен Джеффс
Performer : Gabriel Range
Genre : Drama
ContentType : Short Film
Deion : Основанная на реальных событиях драма о жизни скандально известного Джеффса Уоррена – многоженца, педофила, расиста и по совместительству экс-президента Фундаменталистской Церкви Иисуса Христа Святых Последних Дней.
Recorded date : UTC 2014-06-28 07:00:00
Encoded date : UTC 2014-10-07 19:24:06
Tagged date : UTC 2014-10-07 19:30:18
Copyright : © 2014 Sony Pictures Television Inc. All Rights Reserved.
Cover : Yes
ContentRating : uk-movie|15|350|
Title/Sort : Outlaw Prophet: Warren Jeffs
LongDeion : Основанная на реальных событиях драма о жизни скандально известного Джеффса Уоррена – многоженца, педофила, расиста и по совместительству экс-президента Фундаменталистской Церкви Иисуса Христа Святых Последних Дней. Продолжатель традиций мормонов и дела своего отца, в 2002 году Джеффс Уоррен возглавил церковь, а затем, четыре годы спустя, и список наиболее разыскиваемых лиц ФБР. Почти два года за ним охотились власти, обвинившие Уоррена в насилии над несовершеннолетними, в том числе и в инцесте. 25 сентября 2007 года состоялся арест пророка – его приговорили к 10 годам тюрьмы, но затем приговор ужесточили: Уоррен получил пожизненное заключение, 20 лет сверху и штраф в 10 000 долларов.
HDVideo : Yes
AppleStoreCatalogID : 915269228
Vendor : Apple:vendor_id:2014-tt3756722
Video
ID : 1
Format : AVC
Format/Info : Advanced Video Codec
Format profile : High@L3.1
Format settings, CABAC : No
Format settings, ReFrames : 2 frames
Codec ID : avc1
Codec ID/Info : Advanced Video Coding
Duration : 1h 27mn
Bit rate : 3 906 Kbps
Maximum bit rate : 13.8 Mbps
Width : 1 280 pixels
Height : 718 pixels
Display aspect ratio : 16:9
Frame rate mode : Constant
Frame rate : 23.976 fps
Color space : YUV
Chroma subsampling : 4:2:0
Bit depth : 8 bits
Scan type : Progressive
Bits/(Pixel*Frame) : 0.177
Stream size : 2.39 GiB (85%)
Language : English
Encoded date : UTC 2014-10-07 19:24:06
Tagged date : UTC 2014-10-07 19:25:20
Color primaries : BT.709
Transfer characteristics : BT.709
Matrix coefficients : BT.709
Audio #1
ID : 2
Format : AAC
Format/Info : Advanced Audio Codec
Format profile : LC
Codec ID : 40
Duration : 1h 27mn
Bit rate mode : Variable
Bit rate : 162 Kbps
Maximum bit rate : 206 Kbps
Channel(s) : 2 channels
Channel positions : Front: L R
Sampling rate : 48.0 KHz
Compression mode : Lossy
Stream size : 101 MiB (4%)
Language : Russian
Encoded date : UTC 2014-10-07 19:21:43
Tagged date : UTC 2014-10-07 19:25:20
Audio #2
ID : 3
Format : AC-3
Format/Info : Audio Coding 3
Mode extension : CM (complete main)
Format settings, Endianness : Big
Codec ID : ac-3
Duration : 1h 27mn
Bit rate mode : Constant
Bit rate : 384 Kbps
Channel(s) : 6 channels
Channel positions : Front: L C R, Side: L R, LFE
Sampling rate : 48.0 KHz
Bit depth : 16 bits
Compression mode : Lossy
Stream size : 240 MiB (8%)
Language : Russian
Encoded date : UTC 2014-10-07 19:25:11
Tagged date : UTC 2014-10-07 19:25:20
Audio #3
ID : 4
Format : AAC
Format/Info : Advanced Audio Codec
Format profile : LC
Codec ID : 40
Duration : 1h 27mn
Bit rate mode : Variable
Bit rate : 154 Kbps
Maximum bit rate : 264 Kbps
Channel(s) : 2 channels
Channel positions : Front: L R
Sampling rate : 48.0 KHz
Compression mode : Lossy
Stream size : 96.6 MiB (3%)
Language : English
Encoded date : UTC 2014-10-07 19:25:15
Tagged date : UTC 2014-10-07 19:25:20
Text
ID : 5
Format : Timed Text
Muxing mode : sbtl
Codec ID : tx3g
Duration : 1h 26mn
Bit rate mode : Variable
Bit rate : 53 bps
Stream size : 33.5 KiB (0%)
Language : English
Encoded date : UTC 2014-10-07 19:25:20
Tagged date : UTC 2014-10-07 19:25:20
Menu
ID : 6
Codec ID : text
Duration : 1h 27mn
Encoded date : UTC 2014-10-07 19:25:59
Tagged date : UTC 2014-10-07 19:25:59
Bit rate mode : VBR

Screenshots

[Профиль] [ЛС]
Кто просматривает тему:

Форум Тема Автор Размер
Программы [Разное] Тайны великих пророков v1.0 [Android 2.0+, RUS] TorrentFilm 5 MB
Зарубежные мультфильмы Пророк / The Prophet (2014) HDRip | L BOSS 1.46 GB
Фильмы 2009 года Пророк / Un prophete (Жак Одиар / Jacques Audiard) [2009, Франция, Италия, Драма, криминал, BDRip-AVC] MVO (Велес) TorrentFilm 2.18 GB
Фильмы 2009 года Пророк / Un prophete (Жак Одиар / Jacques Audiard) [2009, Франция, Италия, Драма, криминал, HDRip] Dub TorrentFilm 1.45 GB
Отечественные мультфильмы Пророки и уроки (Вячеслав Котеночкин) [1967, мультипликационный фильм-плакат, DVDRip] Eng hardsub TorrentFilm 175 MB
Фильмы 2015 года Пророчество / Prophecy / Yokokuhan (2015) HDRip | L достали все 1.45 GB
Фильмы (HD Rips | 720p, 1080p) Пророчество / The Prophecy (Грегори Уайден / Gregory Widen) [1995, США, ужасы, фэнтези, триллер, BDRemux 1080p] DVO (Twister) + MVO (МиксМедиа) + AVO (Гаврилов) + Sub Rus, Eng + Original Eng bot 20.11 GB
Фильмы (HD Rips | 720p, 1080p) Пророчество. Трилогия / The Prophecy. Trilogy (1995-2000) BDRip 720p sergej644 20.18 GB
Показать сообщения:    

Текущее время: Сегодня 20:59

Часовой пояс: GMT



Вы не можете начинать темы
Вы не можете отвечать на сообщения
Вы не можете редактировать свои сообщения
Вы не можете удалять свои сообщения
Вы не можете голосовать в опросах
Вы не можете прикреплять файлы к сообщениям
Вы не можете скачивать файлы