Проповедник (Пастырь) / Preacher [2018](Сезон 3, Серия 1-10 из 10 )( Эван Голдберг, Сет Роген, Майкл Словис) [Фэнтези, драма, детектив, приключения, WEB-DLRip][720p][ Lostfilm+AlexFilm+Jaskier+ ProfixMedia+BaibaKО+OMSKBIRD+Eng]+[Subs ENG+Rus]

 
Автор Сообщение

Враг Нароода ®

Пол:

Стаж: 3 года 8 месяцев

Сообщений: 230



Награды: 2 (Подробнее)

За внесенный вклад в развитие сайта (Количество: 1) Mega Seeder 1 (Количество: 1)
Торрент-статистика

Создавать темы 08-Июл-2018 09:09

[Цитировать]

-- --Проповедник (Пастырь) / Preacher Сезон 3, Серия 1-10 из 10 -- --b]Год выпуска: 2018
Выпущено: США , AMC Studios
Жанр:Фэнтези, драма, детектив, приключения
Продолжительность: 00:45:00
Сезон:3
Серия: 1-10
Количество серий в сезоне: 10--Озвучка 1: - Профессиональный многоголосый -Lostfilm- Русский
Озвучка2: Профессиональный многоголосый - ProfixMedia -Русский
Озвучка3: Профессиональный многоголосый - BaibaKО -Русский
Озвучка 4: Профессиональный многоголосый - AlexFilm -Русский
Озвучка 5: Профессиональный многоголосый - Jaskier -Русский
Озвучка 6: Профессиональный многоголосый - OMSKBIRD -Русский
Озвучка 7: Профессиональный многоголосый - NewStudio -Русский
Озвучка 8: Профессиональный двухголосый - Kubik V Kube -Русский
Озвучка 9: Профессиональный многоголосый - Английский - Оригинал
Субтитры: : Russian, English, English SDH --Полный Комплект--Официальный сайт
MDB --Режиссер: Эван Голдберг, Сет Роген, Майкл Словис--В ролях: Доминик Купер, Том Брук, У. Эрл Браун, Йен Коллетти, Джозеф Гилган, Люси Гриффитс, Джеки Эрл Хейли, Рут Негга, Дерек Уилсон, Анатол Юсеф-- Священник Джесси Кастер по воле случая стал носителем внутри своего естества странного существа по имени Генезис. Это дитя совокупления ангела и демона представляет собой одновременно чистый идеал и квинтэссенцию света, но также сгусток абсолютного зла. Генезис — единственное существо во Вселенной, которое может встать вровень с Богом, если того пожелает, а его носитель автоматически становится самым могущественным существом в материальном мире. И это проповедник Кастер.-- --Качество :WEB-DLRip 720p
Формат: MKV
Видео кодек: H264
Видео: 3047Кбит/сек,1280х720(16.9),в 23.976кадр/сек,AVC (High@L3.1)(CABAC/5 Ref Frames)--Аудио Кодек:AC3
Аудио #1:AC3 640 Kbps, 48.0 KHz, 6 ch- Lostfilm -Русский
Аудио #2:AC3 , 384 Kbps, 48.0 KHz, 6 ch- ProfixMedia -Русский
Аудио #3:AC3 , 384 Kbps, 48.0 KHz, 6 ch- BaibaKО -Русский
Аудио #4:AC3 , 384 Kbps, 48.0 KHz, 6 ch-AlexFilm -Русский
Аудио #5:AC3 , 384 Kbps, 48.0 KHz, 6 ch-Jaskier -Русский
Аудио #6:AC3 , 384 Kbps, 48.0 KHz, 6 ch- OMSKBIRD -Русский
Аудио #7:AC3 , 384 Kbps, 48.0 KHz, 6 ch- NewStudio -Русский
Аудио #8:AC3 , 384 Kbps, 48.0 KHz, 6 ch- Kubik V Kube -Русский
Аудио #9: AC3, 640 Kbps, 48.0 KHz,6 ch - - English - Оригинал--

Доп. информация:

Звуковая дорожка сделана путем наложения чистого голоса озвучивателей на центральный канал оригинальной дорожки. Качество идентично звуковой дорожке.
--

Список эпизодов сезона


3 сезон 1 серия - Ангелвиль - Angelville
3 сезон 2 серия - Сучьитвари - Sonsabitches
3 сезон 3 серия - Будет больно - Gonna Hurt
3 сезон 4 серия - Могилы - The Tombs
3 сезон 5 серия - В гробу - The Coffin
3 сезон 6 серия - Дети крови - Les Enfants du Sang
3 сезон 7 серия - Гитлер - Hitler
3 сезон 8 серия - Том/Брейди - The Tom/Brady
3 сезон 9 серия - Головка - Schwanzkopf
3 сезон 10 серия - Небесный свет - The Light Above
--

MediaInfo сезона

Общее
Уникальный идентификатор : 6755843590519135196002898524805117236 (0x51520CE3EDE106A494A7E74CB51B534)
Полное имя : C:\Nikolai.Baranov & PIRATIYA\Проповедник (Пастырь) - Preacher\PREACHER_S03_Н264_DD5.1_N.B_HD_1720_8xRus_Eng\Preacher_S03E01_Н264_DD5.1_N.B_HD_720_8xRus_Eng.mkv
Формат : Matroska
Версия формата : Version 4 / Version 2
Размер файла : 2,06 Гбайт
Продолжительность : 41 м. 55 с.
Общий поток : 7017 Кбит/сек
Название фильма : Preacher S03E01 @ Nikolai.Baranov & PIRATIYA
Дата кодирования : UTC 2018-07-22 05:47:17
Программа кодирования : mkvmerge v25.0.0 ('Prog Noir') 64-bit
Библиотека кодирования : libebml v1.3.6 + libmatroska v1.4.9
Видео
Идентификатор : 1
Формат : AVC
Формат/Информация : Advanced Video Codec
Профиль формата : High@L3.1
Настройки формата : CABAC / 5 Ref Frames
Параметр CABAC формата : Да
Параметр RefFrames формата : 5 кадров
Идентификатор кодека : V_MPEG4/ISO/AVC
Продолжительность : 41 м. 55 с.
Битрейт : 3047 Кбит/сек
Ширина : 1280 пикселей
Высота : 720 пикселей
Соотношение сторон : 16:9
Режим частоты кадров : Постоянный
Частота кадров : 23,976 (24000/1001) кадра/сек
Цветовое пространство : YUV
Субдискретизация насыщенности : 4:2:0
Битовая глубина : 8 бит
Тип развёртки : Прогрессивная
Бит/(Пиксели*Кадры) : 0.138
Размер потока : 913 Мбайт (43%)
Заголовок : Preacher_S03E01_Н264_DD5.1_N.B_HD_720_8xRus_Eng
Язык : Russian
Default : Да
Forced : Нет
Цветовой диапазон : Limited
Основные цвета : BT.709
Характеристики трансфера : BT.709
Коэффициенты матрицы : BT.709
Аудио #1
Идентификатор : 5
Формат : AC-3
Формат/Информация : Audio Coding 3
Идентификатор кодека : A_AC3
Продолжительность : 41 м. 55 с.
Вид битрейта : Постоянный
Битрейт : 640 Кбит/сек
Каналы : 6 каналов
Расположение каналов : Front: L C R, Side: L R, LFE
Частота : 48,0 КГц
Частота кадров : 31,250 кадров/сек (1536 SPF)
Битовая глубина : 16 бит
Метод сжатия : С потерями
Размер потока : 192 Мбайт (9%)
Заголовок : MVO LostFilm @DD5.1 AC3, 640 Kbps, 48.0 KHz, 6 ch
Язык : Russian
ServiceKind/String : Complete Main
Default : Да
Forced : Нет
Аудио #2
Идентификатор : 6
Формат : AC-3
Формат/Информация : Audio Coding 3
Идентификатор кодека : A_AC3
Продолжительность : 41 м. 55 с.
Вид битрейта : Постоянный
Битрейт : 384 Кбит/сек
Каналы : 6 каналов
Расположение каналов : Front: L C R, Side: L R, LFE
Частота : 48,0 КГц
Частота кадров : 31,250 кадров/сек (1536 SPF)
Битовая глубина : 16 бит
Метод сжатия : С потерями
Размер потока : 115 Мбайт (5%)
Заголовок : MVO ProfixMedia @DD5.1 AC3, 384 Kbps, 48.0 KHz, 6 ch
Язык : Russian
ServiceKind/String : Complete Main
Default : Нет
Forced : Нет
Аудио #3
Идентификатор : 7
Формат : AC-3
Формат/Информация : Audio Coding 3
Идентификатор кодека : A_AC3
Продолжительность : 41 м. 55 с.
Вид битрейта : Постоянный
Битрейт : 384 Кбит/сек
Каналы : 6 каналов
Расположение каналов : Front: L C R, Side: L R, LFE
Частота : 48,0 КГц
Частота кадров : 31,250 кадров/сек (1536 SPF)
Битовая глубина : 16 бит
Метод сжатия : С потерями
Размер потока : 115 Мбайт (5%)
Заголовок : MVO AlexFilm @DD5.1 AC3, 384 Kbps, 48.0 KHz, 6 ch
Язык : Russian
ServiceKind/String : Complete Main
Default : Нет
Forced : Нет
Аудио #4
Идентификатор : 8
Формат : AC-3
Формат/Информация : Audio Coding 3
Идентификатор кодека : A_AC3
Продолжительность : 41 м. 55 с.
Вид битрейта : Постоянный
Битрейт : 384 Кбит/сек
Каналы : 6 каналов
Расположение каналов : Front: L C R, Side: L R, LFE
Частота : 48,0 КГц
Частота кадров : 31,250 кадров/сек (1536 SPF)
Битовая глубина : 16 бит
Метод сжатия : С потерями
Размер потока : 115 Мбайт (5%)
Заголовок : MVO Baibako @DD5.1 AC3, 384 Kbps, 48.0 KHz, 6 ch
Язык : Russian
ServiceKind/String : Complete Main
Default : Нет
Forced : Нет
Аудио #5
Идентификатор : 9
Формат : AC-3
Формат/Информация : Audio Coding 3
Идентификатор кодека : A_AC3
Продолжительность : 41 м. 55 с.
Вид битрейта : Постоянный
Битрейт : 384 Кбит/сек
Каналы : 6 каналов
Расположение каналов : Front: L C R, Side: L R, LFE
Частота : 48,0 КГц
Частота кадров : 31,250 кадров/сек (1536 SPF)
Битовая глубина : 16 бит
Метод сжатия : С потерями
Размер потока : 115 Мбайт (5%)
Заголовок : MVO Jaskier @DD5.1 AC3, 384 Kbps, 48.0 KHz, 6 ch
Язык : Russian
ServiceKind/String : Complete Main
Default : Нет
Forced : Нет
Аудио #6
Идентификатор : 10
Формат : AC-3
Формат/Информация : Audio Coding 3
Идентификатор кодека : A_AC3
Продолжительность : 41 м. 55 с.
Вид битрейта : Постоянный
Битрейт : 384 Кбит/сек
Каналы : 6 каналов
Расположение каналов : Front: L C R, Side: L R, LFE
Частота : 48,0 КГц
Частота кадров : 31,250 кадров/сек (1536 SPF)
Битовая глубина : 16 бит
Метод сжатия : С потерями
Размер потока : 115 Мбайт (5%)
Заголовок : MVO NewStudio @DD5.1 AC3, 384 Kbps, 48.0 KHz, 6 ch
Язык : Russian
ServiceKind/String : Complete Main
Default : Нет
Forced : Нет
Аудио #7
Идентификатор : 11
Формат : AC-3
Формат/Информация : Audio Coding 3
Идентификатор кодека : A_AC3
Продолжительность : 41 м. 55 с.
Вид битрейта : Постоянный
Битрейт : 384 Кбит/сек
Каналы : 6 каналов
Расположение каналов : Front: L C R, Side: L R, LFE
Частота : 48,0 КГц
Частота кадров : 31,250 кадров/сек (1536 SPF)
Битовая глубина : 16 бит
Метод сжатия : С потерями
Размер потока : 115 Мбайт (5%)
Заголовок : MVO OMSKBIRD @DD5.1 AC3, 384 Kbps, 48.0 KHz, 6 ch
Язык : Russian
ServiceKind/String : Complete Main
Default : Нет
Forced : Нет
Аудио #8
Идентификатор : 12
Формат : AC-3
Формат/Информация : Audio Coding 3
Идентификатор кодека : A_AC3
Продолжительность : 41 м. 55 с.
Вид битрейта : Постоянный
Битрейт : 384 Кбит/сек
Каналы : 6 каналов
Расположение каналов : Front: L C R, Side: L R, LFE
Частота : 48,0 КГц
Частота кадров : 31,250 кадров/сек (1536 SPF)
Битовая глубина : 16 бит
Метод сжатия : С потерями
Размер потока : 115 Мбайт (5%)
Заголовок : MVO Kubik v Kube @DD5.1 AC3, 384 Kbps, 48.0 KHz, 6 ch
Язык : Russian
ServiceKind/String : Complete Main
Default : Нет
Forced : Нет
Аудио #9
Идентификатор : 13
Формат : AC-3
Формат/Информация : Audio Coding 3
Идентификатор кодека : A_AC3
Продолжительность : 41 м. 55 с.
Вид битрейта : Постоянный
Битрейт : 640 Кбит/сек
Каналы : 6 каналов
Расположение каналов : Front: L C R, Side: L R, LFE
Частота : 48,0 КГц
Частота кадров : 31,250 кадров/сек (1536 SPF)
Битовая глубина : 16 бит
Метод сжатия : С потерями
Размер потока : 192 Мбайт (9%)
Заголовок : Original@DD5.1 AC3 ,640 Kbps, 48.0 KHz, 6 ch
Язык : English
ServiceKind/String : Complete Main
Default : Нет
Forced : Нет
Текст #1
Идентификатор : 2
Формат : UTF-8
Идентификатор кодека : S_TEXT/UTF8
Идентификатор кодека/Информация : UTF-8 Plain Text
Продолжительность : 41 м. 16 с.
Битрейт : 68 бит/сек
ElementCount : 396
Размер потока : 20,6 Кбайт (0%)
Заголовок : Rus - FOCS Studio
Язык : Russian
Default : Да
Forced : Нет
Текст #2
Идентификатор : 3
Формат : UTF-8
Идентификатор кодека : S_TEXT/UTF8
Идентификатор кодека/Информация : UTF-8 Plain Text
Продолжительность : 40 м. 42 с.
Битрейт : 53 бит/сек
ElementCount : 802
Размер потока : 16,1 Кбайт (0%)
Заголовок : Original - SDH
Язык : English
Default : Нет
Forced : Нет
Текст #3
Идентификатор : 4
Формат : UTF-8
Идентификатор кодека : S_TEXT/UTF8
Идентификатор кодека/Информация : UTF-8 Plain Text
Продолжительность : 40 м. 42 с.
Битрейт : 42 бит/сек
ElementCount : 533
Размер потока : 12,8 Кбайт (0%)
Заголовок : Original
Язык : English
Default : Нет
Forced : Нет
Меню
00:00:00.000 : en:Глава 01 / en:Глава 01 / en:Глава 01 / en:Глава 01 / en:Глава 01 / en:Глава 01 / en:Глава 01 / en:Глава 01 / en:Глава 01 / en:Глава 01 / en:Глава 01 / en:Глава 01 / en:Глава 01
--

Скриншоты

-- Сезон 3--

Как закачать отдельный файл

1. Открыть торрент
2. Снять галки с тех файлов торрента, которые мы не хотим закачивать. Оставляем только на нужных нам файлах (файле).
3. Нажать О.К.
В клиенте utorrent
Инструкция
1) Открыть торрент

2) Снять галки с тех файлов торрента, которые мы не хотим закачивать:
* либо вручную, снимая с каждого файла галку( скрин №1)
* либо, нажав кнопку "Снять метки (Select None)", сняв сразу со всех файлов(скрин №2)
№1

№2

Оставляем только на нужных нам файлах (файле).

3)Нажать О.К
-- -- --Внимание!!! 04.09. 2018. РАЗДАЧА ОБНОВЛЕНА. ДОБАВЛЕНА 10-СЕРИЯ. ФИНАЛ СЕЗОНА ОБНОВИТЕ ТОРЕНТ ФАЙЛ. ПРИЯТНОГО ПРОСМОТРА . --Релиз от: Nikolai.Baranov & PIRATIYA -- -- -- --Время раздачи : 24/7--
[Профиль] [ЛС]
Кто просматривает тему:

Форум Тема Автор Размер
Зарубежные сериалы Проповедник (Пастырь) / Preacher [2018](Сезон 3, Серия 1-10 из 10 )( Эван Голдберг, Сет Роген, Майкл Словис) [Фэнтези, драма, детектив, приключения, WEB-DLRip][1080p][ Lostfilm+AlexFilm+Jaskier+... Враг Нароода 35.85 GB
Зарубежные сериалы Проповедник / Preacher (Сезон 1, Серия 1-10 из 10) (Сет Роген) [2016, Фэнтези, драма, детектив, приключения , WEB-DLRip 1080p ] [DD5.1] [MVO] [AlexFilm,,LostFilm,NewStudiо,BaibaKo,FocusStudiо,Kubik V... Враг Нароода 28.25 GB
Зарубежные сериалы Проповедник / Preacher [2017] (Сезон 2, Серия 1-13 из 13) (Сет Роген) [Фэнтези, драма,, приключения , экранизация , WEB-DLRip] [1080] [DD5.1] [MVO] [LostFilm,AlexFilm,Jaskier,NewStudiо,OMSKBIRD,Hamste... Враг Нароода 45.07 GB
Зарубежные сериалы Проповедник / Preacher [2017] (Сезон 2, Серия 1-13 из 13) (Сет Роген) [Фэнтези, драма,, приключения , экранизация , WEB-DLRip] [720p] [DD5.1] [MVO] [LostFilm,AlexFilm,Jaskier,NewStudiо,OMSKBIRD,Hamste... Враг Нароода 25.81 GB
Зарубежные сериалы Проповедник / Preacher [S01] (2016) WEB-DL 1080p | NewStudio Russian Mafia 19.15 GB
Зарубежные сериалы Проповедник / Preacher [S01] (2016) WEB-DL 1080p от qqss44 | LostFilm Russian Mafia 19.15 GB
Зарубежные сериалы Проповедник / Preacher [S01] (2016) WEB-DL 720p | OMSKBIRD достали все 15.71 GB
Зарубежные сериалы Проповедник / Preacher [S01] (2016) WEB-DL 720p от GeneralFilm | AlexFilm Russian Mafia 15.71 GB
Показать сообщения:    

Текущее время: Сегодня 13:49

Часовой пояс: GMT



Вы не можете начинать темы
Вы не можете отвечать на сообщения
Вы не можете редактировать свои сообщения
Вы не можете удалять свои сообщения
Вы не можете голосовать в опросах
Вы не можете прикреплять файлы к сообщениям
Вы не можете скачивать файлы