Проповедник / Preacher [2017] (Сезон 2, Серия 1-8 из 13) (Сет Роген) [Фэнтези, драма,, приключения , экранизация , WEB-DLRip] [1080p] [DD5.1] [MVO] [LostFilm,AlexFilm,Jaskier,NewStudiо,OMSKBIRD,HamsterStudio,BaibaKo,Kubik V Kube, Eng + Subs Rus,ENG]

 
Автор Сообщение

Враг Нароода ®

Стаж: 2 года 5 месяцев

Сообщений: 164



Награды: 2 (Подробнее)

За внесенный вклад в развитие сайта (Количество: 1) Mega Seeder 1 (Количество: 1)
Торрент-статистика

Создавать темы 11-Июл-2017 09:06

[Цитировать]

-- --Проповедник / Preacher Сезон 2, Серия 1-8 из 13 -- --Год выпуска: 2017
Выпущено: США ,AMC Studios
Жанр: Фэнтези, драма, детектив, приключения , экранизация комикса, комедия
Продолжительность: 00:48:00
Сезон:2
Серия: 1-8
Количество серий в сезоне: 13--Озвучка 1: Профессиональный многоголосый - LostFilm-Русский
Озвучка 2: Профессиональный многоголосый - AlexFilm-Русский
Озвучка 3: Профессиональный многоголосый - Jaskier-Русский
Озвучка 4: Профессиональный многоголосый - NewStudiо-Русский
Озвучка 5: Профессиональный многоголосый - OMSKBIRD -Русский
Озвучка 6: Профессиональный многоголосый - HamsterStudio -Русский
Озвучка 7: Профессиональный многоголосый -BaibaKo-Русский
Озвучка 8: Профессиональный двухголосый -Kubik V Kube-Русский
Озвучка 9: Профессиональный многоголосый -Английский - Оригинал
Субтитры: Русские ,Английские
-- --Режиссеры:
Сет Роген, Эван Голдберг, Сет Роген, Майкл Словис--Сценаристы:
Стив Диллон, Сет Роген, Гарт Эннис, Эван Голдберг, Сэм Кэтлин.--В ролях: Доминик Купер (Джесси Кастер), Рут Негга (Тюльпан), Джозеф Гилган (Кэссиди), У. Эрл Браун (Хьюго Рут), Люси Гриффитс (Эмили), Йен Коллетти (Жопорожец), Дерек Уилсон (Донни Шенк).-- Джесси Кастер — проповедник, который, следуя данному отцу обещанию, вернулся в родной Энвиль, штат Техас, дабы наставлять местное население на путь истинный. Но грешников здесь оказалось столько, что Джесси настиг кризис веры, доведший его до рукоприкладства. Неизвестно, чем бы закончилось такое отпущение грехов, если бы в пастыря однажды не вселилась неведомая сущность. Теперь у главного героя есть необычные способности и новая миссия — найти Бога, вероломно покинувшего небеса. Но искать Господа в одиночку сложно и не особо интересно, поэтому себе в компаньоны Кастер берет бывшую подругу (и единственную настоящую любовь) Тюльпан и ирландского вампира-выпивоху Кэссиди. Тюльпан всегда получает, что ей нужно, даже если ради этого приходится обманывать, грабить или убивать, а Кэссиди в силу своего характера готов в любой момент пуститься во все тяжкие ради острых ощущений и веселого времяпрепровождения. В общем, компания для поисков Бога подобралась самая подходящая. Впереди у этой троицы — километры дорог и неожиданные встречи с самыми колоритными обитателями нашего и потустороннего миров. Каждая из них таит в себе нешуточную угрозу. Джесси и его друзьям предстоит помериться силами не только с разными бессмертными сущностями и падшими ангелами, но и с секретными организациями, и что ждет пастыря в конце пути, известно только тому, кого он ищет...-- --Качество :WEB-DLRip 1080p
Формат: MKV
Видео кодек: H265 - HEVC
Видео: 6965Kбит/сек,1920х1080(16.9),в 23.976кадр/сек, HEVC (Main@L4@Main)--Аудио Кодек:AC3
Аудио #1:AC3 , 640 Kbps, 48.0 KHz, 6 ch- -LostFilm-Русский
Аудио #2:AC3 , 384 Kbps, 48.0 KHz, 6 ch- -AlexFilm-Русский
Аудио #3: AC3, 384 Kbps, 48.0 KHz, 6 ch - Jaskier-Русский
Аудио #4: AC3, 384 Kbps, 48.0 KHz, 6 ch - NewStudiо-Русский
Аудио #5: AC3, 384 Kbps, 48.0 KHz, 6 ch - OMSKBIRD-Русский
Аудио #6: AC3, 384 Kbps, 48.0 KHz, 6 ch - HamsterStudio-Русский
Аудио #7: AC3, 384 Kbps, 48.0 KHz, 6 ch - BaibaKo-Русский
Аудио #8: AC3, 384 Kbps, 48.0 KHz, 6 ch - Kubik V Kube-Русский
Аудио #9: AC3, 640 Kbps, 48.0 KHz,6 ch - - English-Английский -Оригинал--

Доп. информация:

Звуковая дорожка сделана путем наложения чистого голоса озвучивателей на центральный канал оригинальной дорожки. Качество идентично звуковой дорожке.
--

Список эпизодов сезона


2 сезон 1 серия -Поехали - On the Road
2 сезон 2 серия - Мумбайская башня - Mumbai Sky Tower
2 сезон 3 серия - Барышни - Damsels
2 сезон 4 серия - Виктор - Viktor
2 сезон 5 серия - Даллас - Dallas
2 сезон 6 серия - Бронемобиль - Sokosha
2 сезон 7 серия - Свинья - Pig
2 сезон 8 серия - Дырки = Holes
--

MediaInfo сезона

Общее
Уникальный идентификатор : 202876069568246212463128357458993189906 (0x98A0827E32548F0FA25EF7AC9BEB9412)
Полное имя : C:\ХОББИ\ПИРАТИЯ(PIRATIYA)\ПРОПОВЕДНИК\PREACHER_2017_S02_[LostFilm_AlexFilm_Jaskier_NewStudiо_OMSKBIRD_ HamsterStudio_BaibaKo_Kubik V Kube]_HEVC_N.B_HD_1080p_8xRus_Eng\Preacher_2017_S02Е01_Н265_HEVC_DD5.1_N.B_WEB-DL_1080p_8xRus_Eng.mkv
Формат : Matroska
Версия формата : Version 4 / Version 2
Размер файла : 3,40 Гбайт
Продолжительность : 44 м. 29 с.
Общий поток : 10,9 Мбит/сек
Название фильма : Preacher_2017_S02Е01_Н265_HEVC_DD5.1_N.B_WEB-DL_1080p_8xRus_Eng
Дата кодирования : UTC 2017-07-02 19:27:15
Программа кодирования : mkvmerge v13.0.0 ('The Juggler') 64bit
Библиотека кодирования : libebml v1.3.4 + libmatroska v1.4.5
Видео
Идентификатор : 1
Формат : HEVC
Формат/Информация : High Efficiency Video Coding
Профиль формата : Main@L4@Main
Идентификатор кодека : V_MPEGH/ISO/HEVC
Продолжительность : 44 м. 29 с.
Битрейт : 6965 Кбит/сек
Ширина : 1920 пикселей
Высота : 1080 пикселей
Соотношение сторон : 16:9
Режим частоты кадров : Постоянный
Частота кадров : 23,976 (24000/1001) кадра/сек
Цветовое пространство : YUV
Субдискретизация насыщенности : 4:2:0
Битовая глубина : 8 бит
Бит/(Пиксели*Кадры) : 0.140
Размер потока : 2,16 Гбайт (64%)
Заголовок : Preacher_2017_S02Е01_Н265_HEVC_DD5.1_N.B_WEB-DL_1080p_8xRus_Eng
Язык : Russian
Default : Да
Forced : Нет
Цветовой диапазон : Full
Аудио #1
Идентификатор : 5
Формат : AC-3
Формат/Информация : Audio Coding 3
Параметр Endianness формата : Big
Идентификатор кодека : A_AC3
Продолжительность : 44 м. 29 с.
Вид битрейта : Постоянный
Битрейт : 640 Кбит/сек
Каналы : 6 каналов
Расположение каналов : Front: L C R, Side: L R, LFE
Частота : 48,0 КГц
Частота кадров : 31,250 кадров/сек (1536 SPF)
Битовая глубина : 16 бит
Метод сжатия : С потерями
Размер потока : 204 Мбайт (6%)
Заголовок : MVO LostFilm @DD5.1 AC3, 640 Kbps, 48.0 KHz, 6 ch
Язык : Russian
ServiceKind/String : Complete Main
Default : Да
Forced : Нет
Аудио #2
Идентификатор : 6
Формат : AC-3
Формат/Информация : Audio Coding 3
Параметр Endianness формата : Big
Идентификатор кодека : A_AC3
Продолжительность : 44 м. 29 с.
Вид битрейта : Постоянный
Битрейт : 384 Кбит/сек
Каналы : 6 каналов
Расположение каналов : Front: L C R, Side: L R, LFE
Частота : 48,0 КГц
Частота кадров : 31,250 кадров/сек (1536 SPF)
Битовая глубина : 16 бит
Метод сжатия : С потерями
Размер потока : 122 Мбайт (4%)
Заголовок : MVO AlexFilm @DD5.1 AC3, 384 Kbps, 48.0 KHz, 6 ch
Язык : Russian
ServiceKind/String : Complete Main
Default : Нет
Forced : Нет
Аудио #3
Идентификатор : 7
Формат : AC-3
Формат/Информация : Audio Coding 3
Параметр Endianness формата : Big
Идентификатор кодека : A_AC3
Продолжительность : 44 м. 29 с.
Вид битрейта : Постоянный
Битрейт : 384 Кбит/сек
Каналы : 6 каналов
Расположение каналов : Front: L C R, Side: L R, LFE
Частота : 48,0 КГц
Частота кадров : 31,250 кадров/сек (1536 SPF)
Битовая глубина : 16 бит
Метод сжатия : С потерями
Размер потока : 122 Мбайт (4%)
Заголовок : MVO Jaskier @DD5.1 AC3, 384 Kbps, 48.0 KHz, 6 ch
Язык : Russian
ServiceKind/String : Complete Main
Default : Нет
Forced : Нет
Аудио #4
Идентификатор : 8
Формат : AC-3
Формат/Информация : Audio Coding 3
Параметр Endianness формата : Big
Идентификатор кодека : A_AC3
Продолжительность : 44 м. 29 с.
Вид битрейта : Постоянный
Битрейт : 384 Кбит/сек
Каналы : 6 каналов
Расположение каналов : Front: L C R, Side: L R, LFE
Частота : 48,0 КГц
Частота кадров : 31,250 кадров/сек (1536 SPF)
Битовая глубина : 16 бит
Метод сжатия : С потерями
Размер потока : 122 Мбайт (4%)
Заголовок : MVO NewStudio @DD5.1 AC3, 384 Kbps, 48.0 KHz, 6 ch
Язык : Russian
ServiceKind/String : Complete Main
Default : Нет
Forced : Нет
Аудио #5
Идентификатор : 9
Формат : AC-3
Формат/Информация : Audio Coding 3
Параметр Endianness формата : Big
Идентификатор кодека : A_AC3
Продолжительность : 44 м. 29 с.
Вид битрейта : Постоянный
Битрейт : 384 Кбит/сек
Каналы : 6 каналов
Расположение каналов : Front: L C R, Side: L R, LFE
Частота : 48,0 КГц
Частота кадров : 31,250 кадров/сек (1536 SPF)
Битовая глубина : 16 бит
Метод сжатия : С потерями
Размер потока : 122 Мбайт (4%)
Заголовок : MVO OMSKBIRD @DD5.1 AC3, 384 Kbps, 48.0 KHz, 6 ch
Язык : Russian
ServiceKind/String : Complete Main
Default : Нет
Forced : Нет
Аудио #6
Идентификатор : 10
Формат : AC-3
Формат/Информация : Audio Coding 3
Параметр Endianness формата : Big
Идентификатор кодека : A_AC3
Продолжительность : 44 м. 28 с.
Вид битрейта : Постоянный
Битрейт : 384 Кбит/сек
Каналы : 6 каналов
Расположение каналов : Front: L C R, Side: L R, LFE
Частота : 48,0 КГц
Частота кадров : 31,250 кадров/сек (1536 SPF)
Битовая глубина : 16 бит
Метод сжатия : С потерями
Размер потока : 122 Мбайт (4%)
Заголовок : MVO HamsterStudio @DD5.1 AC3, 384 Kbps, 48.0 KHz, 6 ch
Язык : Russian
ServiceKind/String : Complete Main
Default : Нет
Forced : Нет
Аудио #7
Идентификатор : 11
Формат : AC-3
Формат/Информация : Audio Coding 3
Параметр Endianness формата : Big
Идентификатор кодека : A_AC3
Продолжительность : 44 м. 29 с.
Вид битрейта : Постоянный
Битрейт : 384 Кбит/сек
Каналы : 6 каналов
Расположение каналов : Front: L C R, Side: L R, LFE
Частота : 48,0 КГц
Частота кадров : 31,250 кадров/сек (1536 SPF)
Битовая глубина : 16 бит
Метод сжатия : С потерями
Размер потока : 122 Мбайт (4%)
Заголовок : MVO BaibaKo @DD5.1 AC3, 384 Kbps, 48.0 KHz, 6 ch
Язык : Russian
ServiceKind/String : Complete Main
Default : Нет
Forced : Нет
Аудио #8
Идентификатор : 12
Формат : AC-3
Формат/Информация : Audio Coding 3
Параметр Endianness формата : Big
Идентификатор кодека : A_AC3
Продолжительность : 44 м. 29 с.
Вид битрейта : Постоянный
Битрейт : 384 Кбит/сек
Каналы : 6 каналов
Расположение каналов : Front: L C R, Side: L R, LFE
Частота : 48,0 КГц
Частота кадров : 31,250 кадров/сек (1536 SPF)
Битовая глубина : 16 бит
Метод сжатия : С потерями
Размер потока : 122 Мбайт (4%)
Заголовок : MVO Kubik V Kube @DD5.1 AC3, 384 Kbps, 48.0 KHz, 6 ch
Язык : Russian
ServiceKind/String : Complete Main
Default : Нет
Forced : Нет
Аудио #9
Идентификатор : 13
Формат : AC-3
Формат/Информация : Audio Coding 3
Параметр Endianness формата : Big
Идентификатор кодека : A_AC3
Продолжительность : 44 м. 29 с.
Вид битрейта : Постоянный
Битрейт : 640 Кбит/сек
Каналы : 6 каналов
Расположение каналов : Front: L C R, Side: L R, LFE
Частота : 48,0 КГц
Частота кадров : 31,250 кадров/сек (1536 SPF)
Битовая глубина : 16 бит
Метод сжатия : С потерями
Размер потока : 204 Мбайт (6%)
Заголовок : Original@DD5.1 AC3 ,640 Kbps, 48.0 KHz, 6 ch
Язык : English
ServiceKind/String : Complete Main
Default : Нет
Forced : Нет
Текст #1
Идентификатор : 2
Формат : UTF-8
Идентификатор кодека : S_TEXT/UTF8
Идентификатор кодека/Информация : UTF-8 Plain Text
Продолжительность : 43 м. 35 с.
Битрейт : 96 бит/сек
ElementCount : 664
Размер потока : 30,9 Кбайт (0%)
Заголовок : Rus - FOCS
Язык : Russian
Default : Да
Forced : Нет
Текст #2
Идентификатор : 3
Формат : UTF-8
Идентификатор кодека : S_TEXT/UTF8
Идентификатор кодека/Информация : UTF-8 Plain Text
Продолжительность : 43 м. 20 с.
Битрейт : 58 бит/сек
ElementCount : 678
Размер потока : 18,7 Кбайт (0%)
Заголовок : Original
Язык : English
Default : Нет
Forced : Нет
Текст #3
Идентификатор : 4
Формат : UTF-8
Идентификатор кодека : S_TEXT/UTF8
Идентификатор кодека/Информация : UTF-8 Plain Text
Продолжительность : 44 м. 20 с.
Битрейт : 73 бит/сек
ElementCount : 966
Размер потока : 23,8 Кбайт (0%)
Заголовок : SDH
Язык : English
Default : Нет
Forced : Нет
Меню
00:00:00.000 : en:Глава 01 / en:Глава 01 / en:Глава 01 / en:Глава 01 / en:Глава 01 / en:Глава 01 / en:Глава 01 / en:Глава 01 / en:Глава 01 / en:Глава 01 / en:Глава 01 / en:Глава 01 / en:Глава 01
--

Скриншоты

-- --Внимание! Раздача пополняется по мере выхода новых серий!--

Внимание! Раздача ведётся путём добавления новых серий!

Раздача ведётся путём добавления новых серий; при каждом добавлении создётся новый торрент.
Чтобы начать докачку новой серии, пользователям необходимо сделать следующее:
1. остановить скачивание,
2. удалить старый торрент у себя из клиента (старые серии удалять не надо),
3. скачать новый торрент и запустить его у себя в клиенте вместо старого, при этом указать клиенту путь в старую папку, куда и должно происходить скачивание новых серий.
Ваш клиент при этом должен произвести хеширование (проверку) старой папки (если не производит сам - помогите ему сделать это), и будет докачивать только те серии которых у вас ещё нет. Старые серии при этом не удаляются, а продолжают раздаваться!
Eсли вы уже удалили старые серии, то предотвратить повторную закачку старых серий можно, отжав галочку в соответсвующих местах при запуске нового торрента. По возможности, желательно не удалять старые серии как можно дольше, чтобы релизёр не столько продолжал раздавать старые серии, а смог сконцентрироваться на новых.
Совет для тех, кто не хочет ждать перехеширования:
Создайте ещё одну папку рядом с папкой сериала (рядом, а не в ней!!!). Каждую новую серию после удачной загрузки копируйте в новую папку так чтобы ваша основная папка всегда была пуста. Когда ваш новый торрент предложит вам закачать все файлы, выберете только последнюю. Для сидирования же укажите адрес новой папки.
Как закачать отдельный файл из торрента или докачать ранее пропущенные файлы торрента!

Как закачать отдельный файл

1. Открыть торрент
2. Снять галки с тех файлов торрента, которые мы не хотим закачивать. Оставляем только на нужных нам файлах (файле).
3. Нажать О.К.
В клиенте utorrent
Инструкция
1) Открыть торрент

2) Снять галки с тех файлов торрента, которые мы не хотим закачивать:
* либо вручную, снимая с каждого файла галку( скрин №1)
* либо, нажав кнопку "Снять метки (Select None)", сняв сразу со всех файлов(скрин №2)
№1

№2

Оставляем только на нужных нам файлах (файле).

3)Нажать О.К
-- -- --Внимание!!! 11.08. 2017. РАЗДАЧА ОБНОВЛЕНА. ДОБАВЛЕНА 8СЕРИЯ. ОБНОВИТЕ ТОРЕНТ ФАЙЛ. ПРИЯТНОГО ПРОСМОТРА . --Релиз от: Nikolai.Baranov & PIRATIYA -- -- -- --
[Профиль] [ЛС]
Кто просматривает тему:

Форум Тема Автор Размер
Зарубежные сериалы Проповедник / Preacher (Сезон 1, Серия 1-10 из 10) (Сет Роген) [2016, Фэнтези, драма, детектив, приключения , WEB-DLRip 1080p ] [DD5.1] [MVO] [AlexFilm,,LostFilm,NewStudiо,BaibaKo,FocusStudiо,Kubik V... Враг Нароода 28.25 GB
Зарубежные сериалы Проповедник / Preacher [2017] (Сезон 2, Серия 1-7 из 13) (Сет Роген) [Фэнтези, драма,, приключения , экранизация , WEB-DLRip] [720p] [DD5.1] [MVO] [LostFilm,AlexFilm,Jaskier,NewStudiо,OMSKBIRD,Hamster... Враг Нароода 13.56 GB
Зарубежные сериалы Проповедник / Preacher [S01] (2016) WEB-DL 1080p | NewStudio Russian Mafia 19.15 GB
Зарубежные сериалы Проповедник / Preacher [S01] (2016) WEB-DL 1080p от qqss44 | LostFilm Russian Mafia 19.15 GB
Зарубежные сериалы Проповедник / Preacher [S01] (2016) WEB-DL 720p | OMSKBIRD достали все 15.71 GB
Зарубежные сериалы Проповедник / Preacher [S01] (2016) WEB-DL 720p от GeneralFilm | AlexFilm Russian Mafia 15.71 GB
Зарубежные сериалы Проповедник / Preacher [S01] (2016) WEB-DLRip | NewStudio Russian Mafia 5.77 GB
Зарубежные сериалы Проповедник / Preacher [S01] (2016) WEB-DLRip от GeneralFilm | AlexFilm Russian Mafia 4.92 GB
Показать сообщения:    

Текущее время: Сегодня 10:44

Часовой пояс: GMT



Вы не можете начинать темы
Вы не можете отвечать на сообщения
Вы не можете редактировать свои сообщения
Вы не можете удалять свои сообщения
Вы не можете голосовать в опросах
Вы не можете прикреплять файлы к сообщениям
Вы не можете скачивать файлы