Проповедник / Preacher [S01] (2016) WEB-DL 720p | OMSKBIRD

 
Автор Сообщение

достали все ®

Пол:

Стаж: 1 год 8 месяцев

Сообщений: 6554



Награды: 12 (Подробнее)

Mega Seeder 3 (Количество: 1) Mega Seeder 2 (Количество: 1) Top Releaser 2 (Количество: 1)
Торрент-статистика

Создавать темы 02-Авг-2016 02:36

[Цитировать]

Информация о фильме
Название: Проповедник
Оригинальное название: Preacher
Год выхода: 2016
Жанр: мистика, драма
Режиссер: Эван Голдберг, Сет Роген, Майкл Словис
В ролях: Доминик Купер, Том Брук, У. Эрл Браун, Йен Коллетти, Джозеф Гилган, Люси Гриффитс, Джеки Эрл Хейли и др.
О фильме:
Священник Джесси Кастер по воле случая стал носителем внутри своего естества странного существа по имени Генезис. Это дитя совокупления ангела и демона представляет собой одновременно чистый идеал и квинтэссенцию света, но также сгусток абсолютного зла. Генезис — единственное существо во Вселенной, которое может встать вровень с Богом, если того пожелает, а его носитель автоматически становится самым могущественным существом в материальном мире. И это проповедник Кастер.


Страна: США
Продолжительность: ~ 60 мин. серия
Перевод: Любительский (многоголосый закадровый) | OMSKBIRD
Файл
Кодек: MPEG-4 AVC
Качество: WEB-DL 720p
Видео: AVC, 1280x718 (16:9), 23.976 fps, ~ 4000 kbps
Звук: Аудио rus: AC-3, 48 KHz, 6 ch, 384 kbps | OMSKBIRD records
Аудио eng: AC-3, 48 KHz, 6 ch, 384 kbps
Семпл
Присутствует реклама!

Скриншоты

Mediainfo:

General
Unique ID : 253687848092943457366697883383675218818 (0xBEDA8097D7BC6718A7A25C229633EB82)
Complete name : F:Мои ДокументыВидеоРАЗДАЧИПричерPreacher S01 WEB-DL 720p (OMSKBIRD)Preacher S01E01 WEB-DL 720p (OMSKBIRD).mkv
Format : Matroska
Format version : Version 2
File size : 2.14 GiB
Duration : 1h 4mn
Overall bit rate : 4 725 Kbps
Movie name : DBRETAiL @ www.DanishBits.org
Encoded date : UTC 2016-05-24 10:42:38
Writing application : mkvmerge v4.0.0 ('The Stars were mine') сборка от Jun 6 2010 16:18:42
Writing library : libebml v1.0.0 + libmatroska v1.0.0
Video
ID : 1
Format : AVC
Format/Info : Advanced Video Codec
Format profile : High@L3.1
Format settings, CABAC : No
Format settings, ReFrames : 2 frames
Codec ID : V_MPEG4/ISO/AVC
Duration : 1h 4mn
Bit rate : 3 863 Kbps
Width : 1 280 pixels
Height : 718 pixels
Display aspect ratio : 16:9
Frame rate : 23.976 fps
Color space : YUV
Chroma subsampling : 4:2:0
Bit depth : 8 bits
Scan type : Progressive
Bits/(Pixel*Frame) : 0.175
Stream size : 1.75 GiB (82%)
Language : English
Default : No
Forced : No
Color primaries : BT.709-5, BT.1361, IEC 61966-2-4, SMPTE RP177
Transfer characteristics : BT.709-5, BT.1361
Matrix coefficients : BT.709-5, BT.1361, IEC 61966-2-4 709, SMPTE RP177
Audio #1
ID : 2
Format : AC-3
Format/Info : Audio Coding 3
Mode extension : CM (complete main)
Format settings, Endianness : Big
Codec ID : A_AC3
Duration : 1h 4mn
Bit rate mode : Constant
Bit rate : 384 Kbps
Channel(s) : 6 channels
Channel positions : Front: L C R, Side: L R, LFE
Sampling rate : 48.0 KHz
Bit depth : 16 bits
Compression mode : Lossy
Stream size : 178 MiB (8%)
Language : Russian
Default : Yes
Forced : No
Audio #2
ID : 3
Format : AC-3
Format/Info : Audio Coding 3
Mode extension : CM (complete main)
Format settings, Endianness : Big
Codec ID : A_AC3
Duration : 1h 4mn
Bit rate mode : Constant
Bit rate : 384 Kbps
Channel(s) : 6 channels
Channel positions : Front: L C R, Side: L R, LFE
Sampling rate : 48.0 KHz
Bit depth : 16 bits
Compression mode : Lossy
Stream size : 178 MiB (8%)
Language : English
Default : No
Forced : No

Релиз:

Перевод • Татьяна Масаковская
Роли озвучивали • Павел Ярощик, Андрей Астров, Алена Соколова
Звукорежиссер • Павел Квентов
Постер • Ксения Просветова
Релиз подготовил • Gater
[Профиль] [ЛС]
Показать сообщения:    

Текущее время: Сегодня 08:50

Часовой пояс: GMT



Вы не можете начинать темы
Вы не можете отвечать на сообщения
Вы не можете редактировать свои сообщения
Вы не можете удалять свои сообщения
Вы не можете голосовать в опросах
Вы не можете прикреплять файлы к сообщениям
Вы не можете скачивать файлы