Пропащие ребята 2: Племя / Lost Boys: The Tribe (П.Дж. Пеше / P.J. Pesce) [2008, США, Канада, ужасы, триллер, комедия, BDRip] Dub + MVO (Ukr) + Sub (Rus. Eng) + Original Eng

 
Автор Сообщение

painkiller ®

Стаж: 2 года 3 месяца

Сообщений: 582



Награды: Нет

Торрент-статистика

Создавать темы 14-Авг-2014 13:01

[Цитировать]

Пропащие ребята 2: Племя / Lost Boys: The Tribe-«Никогда не стареешь. Никогда не умрёшь. Никогда не узнаешь, страх еще раз »- Страна: США, Канада
Жанр: ужасы, триллер, комедия
Год выпуска: 2008
Продолжительность: 01:33:53
Перевод 1: Профессиональный (дублированный)
Перевод 2: Профессиональный (многоголосый закадровый) Украинский
Cубтитры: русские, английские
Оригинальная аудиодорожка: английский
Режиссер: П.Дж. Пеше / P.J. Pesce
В ролях: Тэд Хилдженбринк, Энгус Сазерленд, Отем Ризер, Кори Фельдман, Кори Хэйм, Кайл Кэсси, Шон Сайпос, Александр Кэлверт, Мервин Мондесер
Описание: Когда ты знаешь, что не можешь умереть, ты рискуешь всем, пытаясь нанести сокрушительный удар. Энгус Сазерленд, заняв место своего брата Кифера, является главным вампиром в современной версии Пропащих Ребят. Деревушка на побережье Луна Бэй наводнена изгоями и странными людьми.
После захода солнца оживает Племя — группа отчаянных вампиров, которые наполняют улицы непрекращающимся действием. Но когда появляется предводитель вампиров и его сестра, все секреты всплывают наружу. Борется с силами зла Кори Фельдман, сыгравший охотника Эдгара Фрога. Если вы вступили в Племя, обратного пути нет.
Сэмпл: http://multi-up.com/965700
Качество видео: BDRip (2.2008.Blu-Ray.Remux.(1080p).mkv)
Формат видео: AVI
Видео: 720x304 (2.35:1), 23.976 fps, XviD MPEG-4 ~2090 kbps avg, 0.398 bit/pixel
Аудио 1: 48 kHz, AC3 Dolby Digital, 3/2 (L,C,R,l,r) + LFE ch, ~384 kbps - Дубляж
Аудио 2: 48 kHz, AC3 Dolby Digital, 2/0 (L,R) ch, ~192 kbps - Профессиональный (многоголосый закадровый) Украинский
Аудио 3: 48 kHz, AC3 Dolby Digital, 3/2 (L,C,R,l,r) + LFE ch, ~448 kbps - Оригинал (Английский)
Формат субтитров: softsub (SRT)
Доп. информация о субтитрах: внешние
&

MediaInfo

Общее
Полное имя : D:\Рипы\Lost.Boys.The.Tribe.2008.BDRip.Rus.Ukr.Eng\Lost Boys The Tribe.2008.BDRip.avi
Формат : AVI
Формат/Информация : Audio Video Interleave
Профиль формата : OpenDML
Размер файла : 2,06 Гбайт
Продолжительность : 1 ч. 33 м.
Общий поток : 3138 Кбит/сек
Название фильма : Lost Boys The Tribe.2008.BDRip
Режиссёр : rip by maygli
Программа кодирования : VirtualDubModRus 1.5.10.2 (build 2542/release)
Правообладатель : ... (RG Rulya74)
Видео
Идентификатор : 0
Формат : MPEG-4 Visual
Профиль формата : Advanced Simple@L5
Параметр BVOP формата : 1
Параметр QPel формата : Нет
Параметр GMC формата : Без точки перехода
Параметр матрицы формата : Выборочная
Идентификатор кодека : XVID
Идентификатор кодека/Подсказка : XviD
Продолжительность : 1 ч. 33 м.
Битрейт : 2090 Кбит/сек
Ширина : 720 пикселей
Высота : 304 пикселя
Соотношение сторон : 2,35:1
Частота кадров : 23,976 кадра/сек
Цветовое пространство : YUV
Субдискретизация насыщенности : 4:2:0
Битовая глубина : 8 бит
Тип развёртки : Прогрессивная
Метод сжатия : С потерями
Бит/(Пиксели*Кадры) : 0.398
Размер потока : 1,37 Гбайт (67%)
Библиотека кодирования : XviD 65
Аудио #1
Идентификатор : 1
Формат : AC-3
Формат/Информация : Audio Coding 3
Расширение режима : CM (complete main)
Параметр Endianness формата : Big
Идентификатор кодека : 2000
Продолжительность : 1 ч. 33 м.
Вид битрейта : Постоянный
Битрейт : 384 Кбит/сек
Каналы : 6 каналов
Расположение каналов : Front: L C R, Side: L R, LFE
Частота : 48,0 КГц
Битовая глубина : 16 бит
Метод сжатия : С потерями
Размер потока : 258 Мбайт (12%)
Выравнивание : Разделение по промежуткам
Продолжительность промежутка : 42 мс. (1,00 видеокадр)
Время предзагрузки промежутка : 500 мс.
Заголовок : Дубляж
Аудио #2
Идентификатор : 2
Формат : AC-3
Формат/Информация : Audio Coding 3
Расширение режима : CM (complete main)
Параметр Endianness формата : Big
Идентификатор кодека : 2000
Продолжительность : 1 ч. 33 м.
Вид битрейта : Постоянный
Битрейт : 192 Кбит/сек
Каналы : 2 канала
Расположение каналов : Front: L R
Частота : 48,0 КГц
Битовая глубина : 16 бит
Метод сжатия : С потерями
Размер потока : 129 Мбайт (6%)
Выравнивание : Разделение по промежуткам
Продолжительность промежутка : 42 мс. (1,00 видеокадр)
Время предзагрузки промежутка : 500 мс.
Заголовок : Профессиональный (многоголосый закадровый) Украинский
Аудио #3
Идентификатор : 3
Формат : AC-3
Формат/Информация : Audio Coding 3
Расширение режима : CM (complete main)
Параметр Endianness формата : Big
Идентификатор кодека : 2000
Продолжительность : 1 ч. 33 м.
Вид битрейта : Постоянный
Битрейт : 448 Кбит/сек
Каналы : 6 каналов
Расположение каналов : Front: L C R, Side: L R, LFE
Частота : 48,0 КГц
Битовая глубина : 16 бит
Метод сжатия : С потерями
Размер потока : 301 Мбайт (14%)
Выравнивание : Разделение по промежуткам
Продолжительность промежутка : 42 мс. (1,00 видеокадр)
Время предзагрузки промежутка : 500 мс.
Заголовок : Оригинал (Английский)

Скриншот c названием фильма

Скриншоты

[Профиль] [ЛС]

Создавать темы 06-Авг-2015 23:13 (спустя 11 месяцев 23 дня)

Топик был перенесен из форума Фильмы до 2014 года в форум Фильмы до 2012 года
sergej644
 

Создавать темы 12-Июн-2016 08:51 (спустя 1 год 9 месяцев)

Топик был перенесен из форума Фильмы 2011 года в форум Фильмы 2006-2008 года
Russian Mafia
 
Кто просматривает тему:

Форум Тема Автор Размер
Pop (Поп) Пропаганда - Золотой альбом - 2016, MP3, 320 kbps достали все 134 MB
Discovery Discovery. Пропажи на продажу / Lost & Sold [01-06] (2013) HDTVRip от GeneralFilm | P2 sergej644 1.5 GB
Документальные HD Брошенный Рейс: По Следам Пропавшего "Боинга" (Александр Евсюков) [2015, Документальный, HDTV 720p] TorrentFilm 1.29 GB
Телепередачи День космических историй. Хроники пропавшего самолета (2016) SATRip достали все 647 MB
Фильмы 2011 года Пропавшая / Ясновидящая / Seventeen and Missing (Пол Шнайдер / Paul Schneider) [2007, Канада, детектив, триллер, DVB-AVC] MVO (Kino Polska) TorrentFilm 1.03 GB
Отечественные мультфильмы Пропавшая грамота (Валентина Брумберг) [1945 г., рисованный мультфильм, DVB] TorrentFilm 1.06 GB
Фильмы (DVD 5/9) Пропавшая грамота / Пропала грамота (Борис Ивченко / Борис Івченко) [1972, СССР, Комедия, музыкальный, экранизация, DVD9] Orig (Uk) + Ru (Dub), Sub (Uk, Ru, En) • реставрация TorrentFilm 5.45 GB
Фильмы (DVD 5/9) Пропавшая экспедиция (Вениамин Дорман) [1975, приключения, драма, DVD5][ R5 Twister] TorrentFilm 4.37 GB
Показать сообщения:    

Текущее время: Сегодня 00:19

Часовой пояс: GMT



Вы не можете начинать темы
Вы не можете отвечать на сообщения
Вы не можете редактировать свои сообщения
Вы не можете удалять свои сообщения
Вы не можете голосовать в опросах
Вы не можете прикреплять файлы к сообщениям
Вы не можете скачивать файлы