Пропала совесть (Алексей Соловьев) [1989, Кукольный мультфильм, WEBRip]

 
Автор Сообщение

TorrentFilm ®

Пол:

Стаж: 1 год 11 месяцев

Сообщений: 7741



Награды: Нет

Торрент-статистика

Создавать темы 02-Янв-2016 00:07

[Цитировать]

Пропала совесть
Страна: СССР
Жанр: Кукольный мультфильм
Продолжительность: 00:17:15
Год выпуска: 1989
Русские субтитры: нет
Режиссёр: Алексей Соловьев
Описание: Мультипликационный фильм для взрослых по мотивам одноименной сказки Салтыкова-Щедрина
Доп. информация: ТО«Экран»
Сценарий:И.Марголина
Оператор:Г.Криницкий
Директор: З.Сараева
Раздача группы:
Особую благодарность выражаю delfy1 за предоставленный материал
Качество: WEBRip
Формат: AVI
Видео: 720x540 (1.33:1), 25 fps, XviD build 50 ~1049 kbps avg, 0.11 bit/pixel
Аудио: 44.100 kHz, MPEG Layer 3, 2 ch, ~128.00 kbps avg
Субтитры: нет

Подробные технические данные

Format : AVIFormat/Info : Audio Video InterleaveFile size : 147 MiBDuration : 17mn 15sOverall bit rate : 1 190 KbpsWriting application : MEncoder SVN-r30881(20100311-gcc4.3.3)Writing library : MPlayer
VideoID : 0Format : MPEG-4 VisualFormat profile : Advanced Simple@L5Format settings, BVOP : 2Format settings, QPel : NoFormat settings, GMC : No warppointsFormat settings, Matrix : Default (H.263)Codec ID : XVIDCodec ID/Hint : XviDDuration : 17mn 15sBit rate : 1 050 KbpsWidth : 720 pixelsHeight : 540 pixelsDisplay aspect ratio : 4:3Frame rate : 25.000 fpsColor space : YUVChroma subsampling : 4:2:0Bit depth : 8 bitsScan type : ProgressiveCompression mode : LossyBits/(Pixel*Frame) : 0.108Stream size : 130 MiB (88%)Writing library : XviD 1.2.1 (UTC 2008-12-04)
AudioID : 1Format : MPEG AudioFormat version : Version 1Format profile : Layer 3Mode : Joint stereoMode extension : MS StereoCodec ID : 55Codec ID/Hint : MP3Duration : 17mn 15sBit rate mode : ConstantBit rate : 128 KbpsChannel(s) : 2 channelsSampling rate : 44.1 KHzCompression mode : LossyDelay relative to video : 40msStream size : 15.8 MiB (11%)Alignment : Aligned on interleavesInterleave, duration : 26 ms (0.65 video frame)Interleave, preload duration : 522 msWriting library : LAME3.98

Скриншоты

[Профиль] [ЛС]
Кто просматривает тему:

Форум Тема Автор Размер
Pop (Поп) Пропаганда - Золотой альбом - 2016, MP3, 320 kbps достали все 134 MB
Discovery Discovery. Пропажи на продажу / Lost & Sold [01-06] (2013) HDTVRip от GeneralFilm | P2 sergej644 1.5 GB
Документальные HD Брошенный Рейс: По Следам Пропавшего "Боинга" (Александр Евсюков) [2015, Документальный, HDTV 720p] TorrentFilm 1.29 GB
Телепередачи День космических историй. Хроники пропавшего самолета (2016) SATRip достали все 647 MB
Фильмы 2011 года Пропавшая / Ясновидящая / Seventeen and Missing (Пол Шнайдер / Paul Schneider) [2007, Канада, детектив, триллер, DVB-AVC] MVO (Kino Polska) TorrentFilm 1.03 GB
Отечественные мультфильмы Пропавшая грамота (Валентина Брумберг) [1945 г., рисованный мультфильм, DVB] TorrentFilm 1.06 GB
Фильмы (DVD 5/9) Пропавшая грамота / Пропала грамота (Борис Ивченко / Борис Івченко) [1972, СССР, Комедия, музыкальный, экранизация, DVD9] Orig (Uk) + Ru (Dub), Sub (Uk, Ru, En) • реставрация TorrentFilm 5.45 GB
Фильмы (DVD 5/9) Пропавшая экспедиция (Вениамин Дорман) [1975, приключения, драма, DVD5][ R5 Twister] TorrentFilm 4.37 GB
Показать сообщения:    

Текущее время: Сегодня 20:05

Часовой пояс: GMT



Вы не можете начинать темы
Вы не можете отвечать на сообщения
Вы не можете редактировать свои сообщения
Вы не можете удалять свои сообщения
Вы не можете голосовать в опросах
Вы не можете прикреплять файлы к сообщениям
Вы не можете скачивать файлы