Пропавший оркестр (Алексей Бовкун, Екатерина Шабанова) [2011, короткометражный анимационный фильм, WEBRip-AVC]

 
Автор Сообщение

painkiller ®

Стаж: 2 года 10 месяцев

Сообщений: 582



Награды: Нет

Торрент-статистика

Создавать темы 27-Авг-2014 15:29

[Цитировать]

Пропавший оркестр
Страна: Россия
Жанр: короткометражный анимационный фильм
Продолжительность: 00:12:59
Год выпуска: 2011
Перевод: Не требуется
Режиссёр: Алексей Бовкун, Екатерина Шабанова
Описание: Проснувшись однажды утром, маленький человечек по имени Мортон обнаруживает, что остался один. Он отправляется в путешествие по волшебному миру, чтобы найти своих исчезнувших друзей.
Качество: WEBRip-AVC
Формат: MP4
Видео: AVC, 1280x720, 29.970 fps, ~1 546 Kbps
Аудио: AAC, 44.1 KHz, 2 channels, ~150 Kbps

отчет MediaInfo

Video
ID : 1
Format : AVC
Format/Info : Advanced Video Codec
Format profile : High@L3.1
Format settings, CABAC : Yes
Format settings, ReFrames : 1 frame
Codec ID : avc1
Codec ID/Info : Advanced Video Coding
Duration : 12mn 59s
Bit rate : 1 546 Kbps
Maximum bit rate : 8 875 Kbps
Width : 1 280 pixels
Height : 720 pixels
Display aspect ratio : 16:9
Frame rate mode : Constant
Frame rate : 29.970 fps
Color space : YUV
Chroma subsampling : 4:2:0
Bit depth : 8 bits
Scan type : Progressive
Bits/(Pixel*Frame) : 0.056
Stream size : 144 MiB (91%)
Audio
ID : 2
Format : AAC
Format/Info : Advanced Audio Codec
Format profile : LC
Codec ID : 40
Duration : 12mn 59s
Bit rate mode : Variable
Bit rate : 150 Kbps
Maximum bit rate : 243 Kbps
Channel(s) : 2 channels
Channel positions : Front: L R
Sampling rate : 44.1 KHz
Compression mode : Lossy
Stream size : 14.0 MiB (9%)
Title : IsoMedia File Produced

Скриншоты

[Профиль] [ЛС]
Кто просматривает тему:

Форум Тема Автор Размер
Отечественные cериалы Пропавший без вести [S02] (2017) HDTVRip от Files-x Pensioner 7.03 GB
Показать сообщения:    

Текущее время: Сегодня 02:00

Часовой пояс: GMT



Вы не можете начинать темы
Вы не можете отвечать на сообщения
Вы не можете редактировать свои сообщения
Вы не можете удалять свои сообщения
Вы не можете голосовать в опросах
Вы не можете прикреплять файлы к сообщениям
Вы не можете скачивать файлы