Пропавший оркестр (Алексей Бовкун, Екатерина Шабанова) [2011, короткометражный анимационный фильм, WEBRip-AVC]

 
Автор Сообщение

painkiller ®

Стаж: 2 года 3 месяца

Сообщений: 582



Награды: Нет

Торрент-статистика

Создавать темы 27-Авг-2014 15:29

[Цитировать]

Пропавший оркестр
Страна: Россия
Жанр: короткометражный анимационный фильм
Продолжительность: 00:12:59
Год выпуска: 2011
Перевод: Не требуется
Режиссёр: Алексей Бовкун, Екатерина Шабанова
Описание: Проснувшись однажды утром, маленький человечек по имени Мортон обнаруживает, что остался один. Он отправляется в путешествие по волшебному миру, чтобы найти своих исчезнувших друзей.
Качество: WEBRip-AVC
Формат: MP4
Видео: AVC, 1280x720, 29.970 fps, ~1 546 Kbps
Аудио: AAC, 44.1 KHz, 2 channels, ~150 Kbps

отчет MediaInfo

Video
ID : 1
Format : AVC
Format/Info : Advanced Video Codec
Format profile : High@L3.1
Format settings, CABAC : Yes
Format settings, ReFrames : 1 frame
Codec ID : avc1
Codec ID/Info : Advanced Video Coding
Duration : 12mn 59s
Bit rate : 1 546 Kbps
Maximum bit rate : 8 875 Kbps
Width : 1 280 pixels
Height : 720 pixels
Display aspect ratio : 16:9
Frame rate mode : Constant
Frame rate : 29.970 fps
Color space : YUV
Chroma subsampling : 4:2:0
Bit depth : 8 bits
Scan type : Progressive
Bits/(Pixel*Frame) : 0.056
Stream size : 144 MiB (91%)
Audio
ID : 2
Format : AAC
Format/Info : Advanced Audio Codec
Format profile : LC
Codec ID : 40
Duration : 12mn 59s
Bit rate mode : Variable
Bit rate : 150 Kbps
Maximum bit rate : 243 Kbps
Channel(s) : 2 channels
Channel positions : Front: L R
Sampling rate : 44.1 KHz
Compression mode : Lossy
Stream size : 14.0 MiB (9%)
Title : IsoMedia File Produced

Скриншоты

[Профиль] [ЛС]
Кто просматривает тему:

Форум Тема Автор Размер
Pop (Поп) Пропаганда - Золотой альбом - 2016, MP3, 320 kbps достали все 134 MB
Discovery Discovery. Пропажи на продажу / Lost & Sold [01-06] (2013) HDTVRip от GeneralFilm | P2 sergej644 1.5 GB
Документальные HD Брошенный Рейс: По Следам Пропавшего "Боинга" (Александр Евсюков) [2015, Документальный, HDTV 720p] TorrentFilm 1.29 GB
Телепередачи День космических историй. Хроники пропавшего самолета (2016) SATRip достали все 647 MB
Фильмы 2011 года Пропавшая / Ясновидящая / Seventeen and Missing (Пол Шнайдер / Paul Schneider) [2007, Канада, детектив, триллер, DVB-AVC] MVO (Kino Polska) TorrentFilm 1.03 GB
Отечественные мультфильмы Пропавшая грамота (Валентина Брумберг) [1945 г., рисованный мультфильм, DVB] TorrentFilm 1.06 GB
Фильмы (DVD 5/9) Пропавшая грамота / Пропала грамота (Борис Ивченко / Борис Івченко) [1972, СССР, Комедия, музыкальный, экранизация, DVD9] Orig (Uk) + Ru (Dub), Sub (Uk, Ru, En) • реставрация TorrentFilm 5.45 GB
Фильмы (DVD 5/9) Пропавшая экспедиция (Вениамин Дорман) [1975, приключения, драма, DVD5][ R5 Twister] TorrentFilm 4.37 GB
Показать сообщения:    

Текущее время: Сегодня 00:05

Часовой пояс: GMT



Вы не можете начинать темы
Вы не можете отвечать на сообщения
Вы не можете редактировать свои сообщения
Вы не можете удалять свои сообщения
Вы не можете голосовать в опросах
Вы не можете прикреплять файлы к сообщениям
Вы не можете скачивать файлы