Пропавшая / Ясновидящая / Seventeen and Missing (Пол Шнайдер / Paul Schneider) [2007, Канада, детектив, триллер, DVB-AVC] MVO (Kino Polska)

 
Автор Сообщение

TorrentFilm ®

Пол:

Стаж: 2 года 11 месяцев

Сообщений: 7763



Награды: Нет

Торрент-статистика

Создавать темы 30-Авг-2015 00:10

[Цитировать]

Пропавшая
Seventeen and Missing- Страна: Канада
Жанр: детектив, триллер
Год выпуска: 2007
Продолжительность: 01:29:02Перевод: Профессиональный (многоголосый закадровый) по заказу Kino Polska на производственно-технической базе Студии "Акцент"
Cубтитры: нет
Режиссер: Пол Шнайдер / Paul Schneider
В ролях: Диди Пфайфер / Dedee Pfeiffer (Emilie Janzen), Мэттью Харрисон / Matthew Harrison (Richard Janzen), Теган Мосс / Tegan Moss (Lori Janzen), Терри Дэвид Маллиган / Terry David Mulligan (Det. Cornell), Джаред Кисо / Jared Keeso (Curt)
Описание: У Эмили Джензен всегда была хорошо развита интуиция, но она не смогла предвидеть то, что неизвестные похитят ее 16-летнюю дочь Лори. Вскоре после этого Эмили начинают посещать видения, связанные с этим похищением. Эмили понимает, что ее дочь все еще жива, и начинает собственное расследование…
Доп. информация: Filmbox IPTV

Качество видео: DVB-AVC
Формат видео: MKV
Видео: AVC (H.264), 720x576@1024x576 (16:9), 25 fps, ~1490 kbps avg, 0.144 bit/pixel
Аудио: MPEG Audio 2, 2 ch, 48 kHz, ~128.00 kbps avg

MediaInfo

ОбщееУникальный идентификатор : 233702857356176368188482392515552444492 (0xAFD18879B52AD16A953CDE0C673F804C)Полное имя : F:\My Torrents 3\[apreder]Seventeen_and_Missing(2007)DVB.mkvФормат : MatroskaВерсия формата : Version 2Размер файла : 1,03 ГбайтПродолжительность : 1 ч. 29 м.Общий поток : 1651 Кбит/секДата кодирования : UTC 2015-08-29 07:32:19Программа кодирования : mkvmerge v8.3.0 ('Over the Horizon') 64bitБиблиотека кодирования : libebml v1.3.1 + libmatroska v1.4.2Attachements : cover.jpg / cover_small.jpgTITLE : Seventeen and MissingIMDB : tt0846119DATE_RELEASED : 2007-02-03LAW_RATING : 16+GENRE : Mystery, ThrillerACTOR : Dedee Pfeiffer, Matthew Harrison, Tegan MossDIRECTOR : Paul SchneiderKEYWORDS : torrentfilm.net
ВидеоИдентификатор : 1Формат : AVCФормат/Информация : Advanced Video CodecПрофиль формата : High@L3Параметр CABAC формата : ДаПараметр ReFrames формата : 3 кадраПараметр GOP формата : M=1, N=25Идентификатор кодека : V_MPEG4/ISO/AVCПродолжительность : 1 ч. 29 м.Битрейт : 1490 Кбит/секШирина : 720 пикселейВысота : 576 пикселейСоотношение сторон : 16:9Соотношение сторон в оригинале : 16:9Режим частоты кадров : ПостоянныйЧастота кадров : 25,000 кадров/секСтандарт вещания : PALЦветовое пространство : YUVСубдискретизация насыщенности : 4:2:0Битовая глубина : 8 битТип развёртки : ПрогрессивнаяБит/(Пиксели*Кадры) : 0.144Размер потока : 949 Мбайт (90%)Default : ДаForced : Нет
АудиоИдентификатор : 2Формат : MPEG AudioВерсия формата : Version 1Профиль формата : Layer 2Идентификатор кодека : A_MPEG/L2Идентификатор кодека/Подсказка : MP2Продолжительность : 1 ч. 29 м.Вид битрейта : ПостоянныйБитрейт : 128 Кбит/секКаналы : 2 каналаЧастота : 48,0 КГцМетод сжатия : С потерямиЗадержка видео : -12 мс.Размер потока : 81,5 Мбайт (8%)Язык : RussianDefault : ДаForced : Нет

Скриншот c названием фильма

Скриншоты


Резервные скриншоты


- [2'576]
[Профиль] [ЛС]
Показать сообщения:    

Текущее время: Сегодня 03:39

Часовой пояс: GMT



Вы не можете начинать темы
Вы не можете отвечать на сообщения
Вы не можете редактировать свои сообщения
Вы не можете удалять свои сообщения
Вы не можете голосовать в опросах
Вы не можете прикреплять файлы к сообщениям
Вы не можете скачивать файлы