Пропавшая грамота (Валентина Брумберг) [1945 г., рисованный мультфильм, DVB]

 
Автор Сообщение

TorrentFilm ®

Пол:

Стаж: 2 года

Сообщений: 7741



Награды: Нет

Торрент-статистика

Создавать темы 02-Янв-2016 00:05

[Цитировать]

Пропавшая грамота
Жанр: рисованный мультфильм
Год выпуска: 1945
Продолжительность: 00:40:09
Режиссёр: Валентина Брумберг
Описание: мультфильм о том, как казак отправился в Петербург отвезти грамоту Царице. Целая цепь приключений и препятствий возникает на его пути, но казак преодолевает их и достигает цели . Жарким августом, к царице, с гетманской грамотой отправляют в столицу казака. По дороге заводит он знакомство с разгульным запорожцем. На привале новый друг рассказал, что продал душу дьяволу и ждёт расплату. Ночью казак не стал ложиться спать, решил посмотреть, что дальше будет. Как стемнело, на место привала пришёл чёрт, увёл лошадь, а с ней и царскую грамоту. Пришлось гонцу искать пропажу в переполненном нечистой силой лесу. На утро распрощался казак со знакомцем и, уже без остановок, помчался в Петербург ...
Доп. информация: по одноименной повести Н.В. Гоголя.

Релиз группы:
Трансляция спутникового канала: "Карусель"
Качество видео: DVB
Формат видео: MPEG-PS
Видео: MPEG2 Video, 720x576, 25 fps, 3500 kbps
Аудио: MPEG Audio, 2 сh, 48 kHz, 192 kbps

MediaInfo

D:\Пропавшая грамота. (1945)_DVB by SLuMeP.mpg
General
Complete name : D:\Пропавшая грамота. (1945)_DVB by SLuMeP.mpg
Format : MPEG-PS
File size : 1.06 GiB
Duration : 40mn 9s
Overall bit rate mode : Variable
Overall bit rate : 3 771 Kbps
Writing library : (c) 1998-2010 Womble Multimedia, Inc. / MPEG Video Wizard DVD 5.0.0.114 (01/2010) / Apr 20 2010
Video #224
ID : 224 (0xE0)
Format : MPEG Video
Format version : Version 2
Format profile : Main@Main
Format settings, BVOP : Yes
Format settings, Matrix : Custom
Duration : 40mn 9s
Bit rate mode : Variable
Bit rate : 3 504 Kbps
Maximum bit rate : 5 000 Kbps
Width : 720 pixels
Height : 576 pixels
Display aspect ratio : 4:3
Frame rate : 25.000 fps
Standard : PAL
Color space : YUV
Chroma subsampling : 4:2:0
Bit depth : 8 bits
Scan type : Interlaced
Scan order : Top Field First
Compression mode : Lossy
Bits/(Pixel*Frame) : 0.338
Stream size : 1 006 MiB (93%)
Writing library : (c) 1998-2010 Womble Multimedia, Inc. / MPEG Video Wizard DVD 5.0.0.114 (01/2010) / Apr 20 2010
Audio #192
ID : 192 (0xC0)
Format : MPEG Audio
Format version : Version 1
Format profile : Layer 2
Duration : 40mn 9s
Bit rate mode : Constant
Bit rate : 192 Kbps
Channel(s) : 2 channels
Sampling rate : 48.0 KHz
Compression mode : Lossy
Stream size : 55.1 MiB (5%)
Menu

Скриншоты

[Профиль] [ЛС]
Кто просматривает тему:

Форум Тема Автор Размер
Pop (Поп) Пропаганда - Золотой альбом - 2016, MP3, 320 kbps достали все 134 MB
Discovery Discovery. Пропажи на продажу / Lost & Sold [01-06] (2013) HDTVRip от GeneralFilm | P2 sergej644 1.5 GB
Документальные HD Брошенный Рейс: По Следам Пропавшего "Боинга" (Александр Евсюков) [2015, Документальный, HDTV 720p] TorrentFilm 1.29 GB
Телепередачи День космических историй. Хроники пропавшего самолета (2016) SATRip достали все 647 MB
Фильмы 2011 года Пропавшая / Ясновидящая / Seventeen and Missing (Пол Шнайдер / Paul Schneider) [2007, Канада, детектив, триллер, DVB-AVC] MVO (Kino Polska) TorrentFilm 1.03 GB
Фильмы (DVD 5/9) Пропавшая грамота / Пропала грамота (Борис Ивченко / Борис Івченко) [1972, СССР, Комедия, музыкальный, экранизация, DVD9] Orig (Uk) + Ru (Dub), Sub (Uk, Ru, En) • реставрация TorrentFilm 5.45 GB
Фильмы (DVD 5/9) Пропавшая экспедиция (Вениамин Дорман) [1975, приключения, драма, DVD5][ R5 Twister] TorrentFilm 4.37 GB
Зарубежные сериалы Пропавший без вести / The Missing [01x01-04 из 08] (2014) HDTVRip | L2 Белочка 2.3 GB
Показать сообщения:    

Текущее время: Сегодня 04:13

Часовой пояс: GMT



Вы не можете начинать темы
Вы не можете отвечать на сообщения
Вы не можете редактировать свои сообщения
Вы не можете удалять свои сообщения
Вы не можете голосовать в опросах
Вы не можете прикреплять файлы к сообщениям
Вы не можете скачивать файлы