Проклятый Юнайтед / The Damned United (Том Хупер / Tom Hooper) [2009, Великобритания, Драма, комедия, биография, спорт, HDRip] MVO (ТВ3) + Original Eng

 
Автор Сообщение

TorrentFilm ®

Пол:

Стаж: 1 год 11 месяцев

Сообщений: 7741



Награды: Нет

Торрент-статистика

Создавать темы 26-Янв-2015 00:16

[Цитировать]

Проклятый Юнайтед / The Damned United
Страна: Великобритания
Жанр: Драма, комедия, биография, спорт
Год выпуска: 2009
Продолжительность: 01:37:34
Перевод: Профессиональный (многоголосый закадровый) ТВ3
Cубтитры: нет
Оригинальная аудиодорожка: английский
Режиссер: Том Хупер / Tom Hooper
В ролях: Майкл Шин, Колм Мини, Тимоти Сполл, Генри Гудман, Джим Броудбент, Питер МакДональд, Стивен Грэм, Джимми Реддингтон, Оливер Стоукс, Райан Дэй и др.
Описание: Взгляд на 44-дневное пребывание Брайана Клафа на посту тренера Лидс Юнайтед - одной из лучших команд Его Величества британского футбола, которая за свою историю смогла подняться и на футбольный Олимп и упасть на самое дно турнирной таблицы…
Сэмпл: http://multi-up.com/1028705
Качество видео: HDRip
Формат видео: AVI
Видео: MPEG4, XviD, 720x384 (1.875), 23.976 fps, 1 621 Kbps (0.245 bit/pixel)
Аудио: AC-3, 48.0 KHz, 1 ch, 112 Kbps, CBR - русский
Аудио 2: AC-3, 48.0 KHz, 6 ch, 384 Kbps, CBR - английский

MediaInfo

Общее
Полное имя : K:\Проклятый Юнайтед.avi
Формат : AVI
Формат/Информация : Audio Video Interleave
Размер файла : 1,45 Гбайт
Продолжительность : 1 ч. 37 м.
Общий поток : 2131 Кбит/сек
Название фильма : Проклятый Юнайтед / The Damned United (2009)
Программа кодирования : VirtualDubMod 1.5.10.2 (build 2540/release)
Библиотека кодирования : VirtualDubMod build 2540/release
Правообладатель : miha2154
Видео
Идентификатор : 0
Формат : MPEG-4 Visual
Профиль формата : Advanced Simple@L5
Параметр BVOP формата : 1
Параметр QPel формата : Нет
Параметр GMC формата : Без точки перехода
Параметр матрицы формата : Выборочная
Идентификатор кодека : XVID
Идентификатор кодека/Подсказка : XviD
Продолжительность : 1 ч. 37 м.
Битрейт : 1621 Кбит/сек
Ширина : 720 пикселей
Высота : 384 пикселя
Соотношение сторон : 1,85:1
Частота кадров : 23,976 кадра/сек
Цветовое пространство : YUV
Субдискретизация насыщенности : 4:2:0
Битовая глубина : 8 бит
Тип развёртки : Прогрессивная
Метод сжатия : С потерями
Бит/(Пиксели*Кадры) : 0.245
Размер потока : 1,11 Гбайт (76%)
Библиотека кодирования : XviD 65
Аудио #1
Идентификатор : 1
Формат : AC-3
Формат/Информация : Audio Coding 3
Расширение режима : CM (complete main)
Параметр Endianness формата : Big
Идентификатор кодека : 2000
Продолжительность : 1 ч. 37 м.
Вид битрейта : Постоянный
Битрейт : 112 Кбит/сек
Каналы : 1 канал
Расположение каналов : Front: C
Частота : 48,0 КГц
Битовая глубина : 16 бит
Метод сжатия : С потерями
Размер потока : 78,2 Мбайт (5%)
Выравнивание : Разделение по промежуткам
Продолжительность промежутка : 42 мс. (1,00 видеокадр)
Время предзагрузки промежутка : 500 мс.
Заголовок : Профессиональный (многоголосый закадровый) ТВ3
Аудио #2
Идентификатор : 2
Формат : AC-3
Формат/Информация : Audio Coding 3
Расширение режима : CM (complete main)
Параметр Endianness формата : Big
Идентификатор кодека : 2000
Продолжительность : 1 ч. 37 м.
Вид битрейта : Постоянный
Битрейт : 384 Кбит/сек
Каналы : 6 каналов
Расположение каналов : Front: L C R, Side: L R, LFE
Частота : 48,0 КГц
Битовая глубина : 16 бит
Метод сжатия : С потерями
Размер потока : 268 Мбайт (18%)
Выравнивание : Разделение по промежуткам
Продолжительность промежутка : 42 мс. (1,00 видеокадр)
Время предзагрузки промежутка : 500 мс.
Заголовок : Английский

Скриншоты

[Профиль] [ЛС]

Создавать темы 06-Авг-2015 22:47 (спустя 6 месяцев 11 дней)

Топик был перенесен из форума Фильмы до 2014 года в форум Фильмы до 2012 года
sergej644
 

Создавать темы 12-Июн-2016 08:48 (спустя 1 год 4 месяца)

Топик был перенесен из форума Фильмы 2011 года в форум Фильмы 2009 года
Russian Mafia
 
Кто просматривает тему:

Форум Тема Автор Размер
History History: Проклятие острова Оук (сезон 2) / The Curse of Oak Island [2014, Познавательный, History Channel HD, DVB] TorrentFilm 4.77 GB
Action NecroVisioN: Lost Company / NecroVisioN: Проклятая рота [L] [RUS / RUS] (2010) (1.001) TorrentFilm 3.15 GB
National Geographic NG: Исследователь 2.0: Проклятие затерянного города: Легенда о "Городе обезьяньего бога" / Explorer. Legend of the monkey God [сезон 8 эпизод 02] (Graham Townsley) [2015 г., Документальный,... skorpionN 1.44 GB
Фильмы (HD Rips | 720p, 1080p) Деревня проклятых / Village of the Damned (Джон Карпентер) [1995 г., ужасы, фантастика, триллер, BDRip 720p] [MVO, DVO, AVO] Bathory 4.93 GB
Фильмы (HD Rips | 720p, 1080p) Долина проклятий / Damnation Alley (1977) BDRip 1080p от Silverok | A Russian Mafia 9.06 GB
Приключения, Квесты, Логические Затерянные земли 3: Проклятое золото. Коллекционное издание (2016) PC достали все 1.11 GB
Боевики, детективы, триллеры Климкович Сергей - Хакер 01. Проклятый (2014) МР3 sergej644 371 MB
Фильмы (HD DVD, Blu-ray и BDRemux) Мумия / Проклятье фараонов / The Mummy (Теренс Фишер / Terence Fisher) [1959, Великобритания, ужасы, BDRemux 1080p] MVO (DVD Магия) + DVO (НТВ+) + Sub Eng + Original Eng sergej644 16.76 GB
Показать сообщения:    

Текущее время: Сегодня 22:30

Часовой пояс: GMT



Вы не можете начинать темы
Вы не можете отвечать на сообщения
Вы не можете редактировать свои сообщения
Вы не можете удалять свои сообщения
Вы не можете голосовать в опросах
Вы не можете прикреплять файлы к сообщениям
Вы не можете скачивать файлы