Проклятое место / In a Dark Place (Донато Ротунно / Donato Rotunno) [2006, Великобритания, Люксембург, триллер, мистика, DVDRip] MVO

 
Автор Сообщение

TorrentFilm ®

Пол:

Стаж: 2 года

Сообщений: 7741



Награды: Нет

Торрент-статистика

Создавать темы 14-Июн-2015 00:04

[Цитировать]

Проклятое место / In a Dark Place
Страна: Великобритания, Люксембург
Жанр: триллер, мистика
Год выпуска: 2006
Продолжительность: 01:35:02
Перевод: Профессиональный (многоголосый закадровый)
Cубтитры: нет

Режиссер: Донато Ротунно / Donato Rotunno
В ролях: Лили Собески, Тара Фитцджеральд, Кристиан Олсон, Гэбриэлль Адам, Джонатан Фокс
Описание: Молодая девушка Анна устраивается няней в один богатый и удаленный от больших поселений дом. Пока владелец дома и дядя двух детей отсуствует по делам службы, она должна опекать двух очаровательных сирот. Эта работа кажется ей идеальным местом, смущает только чересчур строгая гувернантка дома - мисс Гродз. Однако , со временем девушка обнаруживает, что в этом доме что то не так: дети ведут себя странно, а она сама начинает видеть призраков, бывших работников этого дома, уже умерших. Дети с каждым днем вызывают все больше опасений, и она пытается спасти от кошмаров невинные детские души. Но не связан ли этот кошмар с ней самой?
Качество видео: DVDRip
Формат видео: AVI
Видео: 704x368 (1.91:1), 25 fps, XviD build 73 ~1736 kbps avg, 0.27 bit/pixel
Аудио: 48 kHz, AC3 Dolby Digital, 3/2 (L,C,R,l,r) + LFE ch, ~448 kbps

MediaInfo

Общее
Полное имя : H:\In.a.Dark.Place.2006.dvdrip_[1.46]_[teko].avi
Формат : AVI
Формат/Информация : Audio Video Interleave
Размер файла : 1,46 Гбайт
Продолжительность : 1 ч. 35 м.
Общий поток : 2195 Кбит/сек
Программа кодирования : VirtualDubMod 1.5.10.3 | www.virtualdub-fr.org || (build 2550/release)
Библиотека кодирования : VirtualDubMod build 2550/release
Видео
Идентификатор : 0
Формат : MPEG-4 Visual
Профиль формата : Advanced Simple@L5
Параметр BVOP формата : 1
Параметр QPel формата : Нет
Параметр GMC формата : Без точки перехода
Параметр матрицы формата : Выборочная
Идентификатор кодека : XVID
Идентификатор кодека/Подсказка : XviD
Продолжительность : 1 ч. 35 м.
Битрейт : 1737 Кбит/сек
Ширина : 704 пикселя
Высота : 368 пикселей
Соотношение сторон : 1,913
Частота кадров : 25,000 кадров/сек
Цветовое пространство : YUV
Субдискретизация насыщенности : 4:2:0
Битовая глубина : 8 бит
Тип развёртки : Прогрессивная
Метод сжатия : С потерями
Бит/(Пиксели*Кадры) : 0.268
Размер потока : 1,15 Гбайт (79%)
Библиотека кодирования : XviD 73
Аудио
Идентификатор : 1
Формат : AC-3
Формат/Информация : Audio Coding 3
Расширение режима : CM (complete main)
Параметр Endianness формата : Big
Идентификатор кодека : 2000
Продолжительность : 1 ч. 35 м.
Вид битрейта : Постоянный
Битрейт : 448 Кбит/сек
Каналы : 6 каналов
Расположение каналов : Front: L C R, Side: L R, LFE
Частота : 48,0 КГц
Битовая глубина : 16 бит
Метод сжатия : С потерями
Размер потока : 305 Мбайт (20%)
Выравнивание : Разделение по промежуткам
Продолжительность промежутка : 40 мс. (1,00 видеокадр)
Время предзагрузки промежутка : 500 мс.

Скриншоты

Релиз группы:
--
[Профиль] [ЛС]

Создавать темы 06-Авг-2015 22:29 (спустя 1 месяц 22 дня)

Топик был перенесен из форума Фильмы до 2014 года в форум Фильмы до 2012 года
sergej644
 
Кто просматривает тему:

Форум Тема Автор Размер
History History: Проклятие острова Оук (сезон 2) / The Curse of Oak Island [2014, Познавательный, History Channel HD, DVB] TorrentFilm 4.77 GB
Action NecroVisioN: Lost Company / NecroVisioN: Проклятая рота [L] [RUS / RUS] (2010) (1.001) TorrentFilm 3.15 GB
National Geographic NG: Исследователь 2.0: Проклятие затерянного города: Легенда о "Городе обезьяньего бога" / Explorer. Legend of the monkey God [сезон 8 эпизод 02] (Graham Townsley) [2015 г., Документальный,... skorpionN 1.44 GB
Фильмы (HD Rips | 720p, 1080p) Деревня проклятых / Village of the Damned (Джон Карпентер) [1995 г., ужасы, фантастика, триллер, BDRip 720p] [MVO, DVO, AVO] Bathory 4.93 GB
Фильмы (HD Rips | 720p, 1080p) Долина проклятий / Damnation Alley (1977) BDRip 1080p от Silverok | A Russian Mafia 9.06 GB
Приключения, Квесты, Логические Затерянные земли 3: Проклятое золото. Коллекционное издание (2016) PC достали все 1.11 GB
Боевики, детективы, триллеры Климкович Сергей - Хакер 01. Проклятый (2014) МР3 sergej644 371 MB
Фильмы (HD DVD, Blu-ray и BDRemux) Мумия / Проклятье фараонов / The Mummy (Теренс Фишер / Terence Fisher) [1959, Великобритания, ужасы, BDRemux 1080p] MVO (DVD Магия) + DVO (НТВ+) + Sub Eng + Original Eng sergej644 16.76 GB
Показать сообщения:    

Текущее время: Сегодня 04:46

Часовой пояс: GMT



Вы не можете начинать темы
Вы не можете отвечать на сообщения
Вы не можете редактировать свои сообщения
Вы не можете удалять свои сообщения
Вы не можете голосовать в опросах
Вы не можете прикреплять файлы к сообщениям
Вы не можете скачивать файлы