Проклятие 3 / The Grudge 3 (Тоби Уилкинс / Toby Wilkins) [2009, США, Япония, ужасы, детектив, BDRip] AVO (Визгунов)

 
Автор Сообщение

TorrentFilm ®

Пол:

Стаж: 2 года 6 месяцев

Сообщений: 7773



Награды: Нет

Торрент-статистика

Создавать темы 07-Апр-2015 00:02

[Цитировать]

Проклятие 3The Grudge 3- -Страна: США, Япония
Жанр: ужасы, детектив
Год выпуска: 2009
Продолжительность: 01:30:15-Перевод: Авторский (одноголосый закадровый) Сергей Визгунов
Cубтитры: нет-Режиссер: Тоби Уилкинс / Toby Wilkins
В ролях: Джоанна Э. Брэдди, Шоуни Смит, Аико Хориути, Симба Цутия, Гил МакКинни, Еми Икэхата, Джэди Хобсон, Бо Мирчофф, Марина Сиртис, Мэттью Найт-Описание: Молодой японке известен способ положить конец распространению проклятия. Девушка вылетает в Чикаго, где в многоквартирном доме с призраками отчаянно сражается целая семья. Сообща они пытаются дать отпор беснующейся Каяко, чтобы спасти свои души от трагического фатума.-Сэмпл-Качество видео: BDRip
Формат видео: AVI
Видео: 704x384 (1.83:1), 23.976 fps, XviD build 65 ~1846 kbps avg, 0.28 bit/pixel
Аудио: 48 kHz, AC3 Dolby Digital, 3/2 (L,C,R,l,r) + LFE ch, ~448 kbps

MediaInfo

General
Complete name : E:\Downloads\Grudge.3.Vizgunov.avi
Format : AVI
Format/Info : Audio Video Interleave
File size : 1.45 GiB
Duration : 1h 30mn
Overall bit rate : 2 303 Kbps
Movie name : Проклятие 3 / The Grudge 3 (2009) BDRip
Director : sociolog_melvas
Genre : ужасы, детектив
Writing application : VirtualDubMod 1.5.10.2 (build 2540/release)
Writing library : VirtualDubMod build 2540/release
Copyright : http://hqclub.net/
Comment : 24.07.2014
Video
ID : 0
Format : MPEG-4 Visual
Format profile : Advanced Simple@L5
Format settings, BVOP : 1
Format settings, QPel : No
Format settings, GMC : No warppoints
Format settings, Matrix : Custom
Codec ID : XVID
Codec ID/Hint : XviD
Duration : 1h 30mn
Bit rate : 1 846 Kbps
Width : 704 pixels
Height : 384 pixels
Display aspect ratio : 1.85:1
Frame rate : 23.976 fps
Color space : YUV
Chroma subsampling : 4:2:0
Bit depth : 8 bits
Scan type : Progressive
Compression mode : Lossy
Bits/(Pixel*Frame) : 0.285
Stream size : 1.16 GiB (80%)
Writing library : XviD 65
Audio
ID : 1
Format : AC-3
Format/Info : Audio Coding 3
Mode extension : CM (complete main)
Format settings, Endianness : Big
Codec ID : 2000
Duration : 1h 30mn
Bit rate mode : Constant
Bit rate : 448 Kbps
Channel(s) : 6 channels
Channel positions : Front: L C R, Side: L R, LFE
Sampling rate : 48.0 KHz
Bit depth : 16 bits
Compression mode : Lossy
Stream size : 289 MiB (19%)
Alignment : Split accross interleaves
Interleave, duration : 42 ms (1.00 video frame)
Interleave, preload duration : 500 ms

Скриншот c названием фильма

Скриншоты

[Профиль] [ЛС]

Создавать темы 06-Авг-2015 22:37 (спустя 3 месяца 29 дней)

Топик был перенесен из форума Фильмы до 2014 года в форум Фильмы до 2012 года
sergej644
 

Создавать темы 12-Июн-2016 08:49 (спустя 1 год 2 месяца)

Топик был перенесен из форума Фильмы 2011 года в форум Фильмы 2009 года
Russian Mafia
 
Кто просматривает тему:

Показать сообщения:    

Текущее время: Сегодня 03:57

Часовой пояс: GMT



Вы не можете начинать темы
Вы не можете отвечать на сообщения
Вы не можете редактировать свои сообщения
Вы не можете удалять свои сообщения
Вы не можете голосовать в опросах
Вы не можете прикреплять файлы к сообщениям
Вы не можете скачивать файлы