Проклятие Спящей красавицы / The Curse of Sleeping Beauty (2016) WEB-DLRip | D

 
Автор Сообщение

ODESSA ®

Пол:

Стаж: 1 год 7 месяцев

Сообщений: 421

Откуда: ODESSA



Награды: Нет

Торрент-статистика

Создавать темы 20-Авг-2016 10:16

[Цитировать]

Проклятие Спящей красавицы / The Curse of Sleeping Beauty
Страна: США
Производство: 2B Films, Briar Rose Productions, Nexus Motion Picture Company
Год выпуска: 2016
Жанр: фэнтези, триллер, детектив
Продолжительность: 01:22:33
Режиссер: Тео Пирри
Авторы сценария: Тео Пирри, Джош Надлер
В ролях: Итан Пек, Индиа Айсли, Натали Холл, Брюс Дэвисон, Джеймс Лим, Скотт Алан Смит, Зак Уорд, Мим Дрю, Даллас Харт
Описание: Томас Кайзер наследует родовое поместье, принадлежащее его семье многие поколения. Но он и не подозревает, что вместе с домом унаследовал и древнее проклятие, что лежит на нём со времён крестовых походов. Томас вынужден примерить на себя роль «хранителя» — того, кто не допустит, чтобы силы зла высвободились из поместья. Разгадать тайну дома ему помогут местный риелтор и священник, а также разбудить прекрасную Брайер Роуз, запертую в ужасном месте, которое Томас видел в своих снах...

Перевод: Профессиональный (полное дублирование)
Субтитры: нет-Качество: WEB-DLRip
Формат: АVI
Видео кодек: XviD
Аудио кодек: АС3
Видео: 720x400 (16:9), 25.000 fps, XviD ~1 855 kbps avg
Аудио: 48.0 kHz, AC3 Dolby Digital, 2/0 (L,R) ch, ~384 kbps
Дата премьеры (мир): 8 апреля 2016
Дата премьеры (РФ): 2 июня 2016, «Магнум Пикчерз»
ПРИМЕЧАНИЕ: ПРИСУТСТВУЕТ РЕКЛАМА!

Media Info

General
Общее
Полное имя : Proklyatie.Spyashej.krasavicy.2O16.D.WEBDRip.avi
Формат : AVI
Формат/Информация : Audio Video Interleave
Размер файла : 1,35 Гбайт
Продолжительность : 1 ч. 22 м.
Общий поток : 2340 Кбит/сек
Программа кодирования : VirtualDubMod 1.5.10.3 | www.virtualdub-fr.org || (build 2550/release)
Библиотека кодирования : VirtualDubMod build 2550/release
Видео
Идентификатор : 0
Формат : MPEG-4 Visual
Профиль формата : Advanced Simple@L5
Параметр BVOP формата : Да
Параметр QPel формата : Нет
Параметр GMC формата : Без точки перехода
Параметр матрицы формата : Default (MPEG)
Идентификатор кодека : XVID
Идентификатор кодека/Подсказка : XviD
Продолжительность : 1 ч. 22 м.
Битрейт : 1855 Кбит/сек
Ширина : 720 пикселей
Высота : 400 пикселей
Соотношение сторон : 16:9
Частота кадров : 25,000 кадров/сек
Цветовое пространство : YUV
Субдискретизация насыщенности : 4:2:0
Битовая глубина : 8 бит
Тип развёртки : Прогрессивная
Метод сжатия : С потерями
Бит/(Пиксели*Кадры) : 0.258
Размер потока : 1,07 Гбайт (79%)
Библиотека кодирования : XviD 1.2.1 (UTC 2008-12-04)
Аудио
Идентификатор : 1
Формат : AC-3
Формат/Информация : Audio Coding 3
Расширение режима : CM (complete main)
Параметр Endianness формата : Big
Идентификатор кодека : 2000
Продолжительность : 1 ч. 22 м.
Вид битрейта : Постоянный
Битрейт : 384 Кбит/сек
Каналы : 2 канала
Расположение каналов : Front: L R
Частота : 48,0 КГц
Частота кадров : 31,250 кадров/сек (1536 spf)
Метод сжатия : С потерями
Размер потока : 227 Мбайт (16%)
Выравнивание : Разделение по промежуткам

Скриншоты

[Профиль] [ЛС]
Кто просматривает тему:

Форум Тема Автор Размер
History History: Проклятие острова Оук (сезон 2) / The Curse of Oak Island [2014, Познавательный, History Channel HD, DVB] TorrentFilm 4.77 GB
Action NecroVisioN: Lost Company / NecroVisioN: Проклятая рота [L] [RUS / RUS] (2010) (1.001) TorrentFilm 3.15 GB
National Geographic NG: Исследователь 2.0: Проклятие затерянного города: Легенда о "Городе обезьяньего бога" / Explorer. Legend of the monkey God [сезон 8 эпизод 02] (Graham Townsley) [2015 г., Документальный,... skorpionN 1.44 GB
Фильмы (HD Rips | 720p, 1080p) Деревня проклятых / Village of the Damned (Джон Карпентер) [1995 г., ужасы, фантастика, триллер, BDRip 720p] [MVO, DVO, AVO] Bathory 4.93 GB
Фильмы (HD Rips | 720p, 1080p) Долина проклятий / Damnation Alley (1977) BDRip 1080p от Silverok | A Russian Mafia 9.06 GB
Приключения, Квесты, Логические Затерянные земли 3: Проклятое золото. Коллекционное издание (2016) PC достали все 1.11 GB
Боевики, детективы, триллеры Климкович Сергей - Хакер 01. Проклятый (2014) МР3 sergej644 371 MB
Фильмы (HD DVD, Blu-ray и BDRemux) Мумия / Проклятье фараонов / The Mummy (Теренс Фишер / Terence Fisher) [1959, Великобритания, ужасы, BDRemux 1080p] MVO (DVD Магия) + DVO (НТВ+) + Sub Eng + Original Eng sergej644 16.76 GB
Показать сообщения:    

Текущее время: Сегодня 13:03

Часовой пояс: GMT



Вы не можете начинать темы
Вы не можете отвечать на сообщения
Вы не можете редактировать свои сообщения
Вы не можете удалять свои сообщения
Вы не можете голосовать в опросах
Вы не можете прикреплять файлы к сообщениям
Вы не можете скачивать файлы