Проклятая / The New Daughter (Луисо Бердейо / Luiso Berdejo) [2009, США, ужасы, триллер, HDRip] MVO (1 канал) + Original Eng

 
Автор Сообщение

reversefile ®

Пол:

Стаж: 4 года 5 месяцев

Сообщений: 842

Откуда: ReverseFile.org



Награды: Нет

Торрент-статистика

Создавать темы 13-Авг-2014 10:03

[Цитировать]

Проклятая / The New Daughter
Страна: США
Студия: Gold Circle Films, New Daughter Productions
Жанр: ужасы, триллер
Год выпуска: 2009
Продолжительность: 01:47:59
Перевод: Профессиональный (многоголосый закадровый) 1 канал
Cубтитры: нет
Оригинальная аудиодорожка: английский
Режиссер: Луисо Бердейо / Luiso Berdejo
В ролях: Кевин Костнер, Ивана Бакеро, Саманта Мэтис, Гэтлин Гриффит, Эрик Палладино, Ноа Тейлор, Джеймс Гэммон, Сандра Эллис Лэфферти, Маргарет Энн Флоренс, Кристофер Харви
Описание: После тяжелого развода, Джон забирает обоих своих детей и переезжает в глухую деревушку в штате Иллинойс, чтобы начать жизнь сначала. Но вскоре его старшая дочь становится странной и замкнутой, а в семье начинают происходить загадочные и зловещие вещи.
II Сэмпл II IMDB II
Доп. информация:
За исходник спасибо лорди74
Запись звука с 1 канала и синхронизация vedigo
Качество видео: HDRip
Формат видео: AVI
Видео: Xvid 720x304 (2.37:1) 23.976fps Bit rate 2170Kbps b/p 0.414
Аудио 1: AC3 48.0 KHz 2ch. 192kbps rus mvo
Аудио 2: AC3 48.0 KHz 6ch. 448kbps eng

MediaInfo

Общее
Полное имя : E:\torrent\The.New.Daughter.2009.HDRip.avi
Формат : AVI
Формат/Информация : Audio Video Interleave
Профиль формата : OpenDML
Размер файла : 2,13 Гбайт
Продолжительность : 1 ч. 47 м.
Общий поток : 2828 Кбит/сек
Программа кодирования : VirtualDubMod 1.5.10.3 (build 2550/release)
Библиотека кодирования : VirtualDubMod build 2550/release
Видео
Идентификатор : 0
Формат : MPEG-4 Visual
Профиль формата : Advanced Simple@L5
Параметр BVOP формата : 2
Параметр QPel формата : Нет
Параметр GMC формата : Без точки перехода
Параметр матрицы формата : Default (H.263)
Идентификатор кодека : XVID
Идентификатор кодека/Подсказка : XviD
Продолжительность : 1 ч. 47 м.
Битрейт : 2170 Кбит/сек
Ширина : 720 пикселей
Высота : 304 пикселя
Соотношение сторон : 2,35:1
Частота кадров : 23,976 кадра/сек
Цветовое пространство : YUV
Субдискретизация насыщенности : 4:2:0
Битовая глубина : 8 бит
Тип развёртки : Прогрессивная
Метод сжатия : С потерями
Бит/(Пиксели*Кадры) : 0.414
Размер потока : 1,64 Гбайт (77%)
Библиотека кодирования : XviD 1.2.1 (UTC 2008-12-04)
Аудио #1
Идентификатор : 1
Формат : AC-3
Формат/Информация : Audio Coding 3
Расширение режима : CM (complete main)
Параметр Endianness формата : Big
Идентификатор кодека : 2000
Продолжительность : 1 ч. 47 м.
Вид битрейта : Постоянный
Битрейт : 192 Кбит/сек
Каналы : 2 канала
Расположение каналов : Front: L R
Частота : 48,0 КГц
Битовая глубина : 16 бит
Метод сжатия : С потерями
Размер потока : 148 Мбайт (7%)
Выравнивание : Разделение по промежуткам
Продолжительность промежутка : 42 мс. (1,00 видеокадр)
Время предзагрузки промежутка : 500 мс.
Аудио #2
Идентификатор : 2
Формат : AC-3
Формат/Информация : Audio Coding 3
Расширение режима : CM (complete main)
Параметр Endianness формата : Big
Идентификатор кодека : 2000
Продолжительность : 1 ч. 47 м.
Вид битрейта : Постоянный
Битрейт : 448 Кбит/сек
Каналы : 6 каналов
Расположение каналов : Front: L C R, Side: L R, LFE
Частота : 48,0 КГц
Битовая глубина : 16 бит
Метод сжатия : С потерями
Размер потока : 346 Мбайт (16%)
Выравнивание : Разделение по промежуткам
Продолжительность промежутка : 42 мс. (1,00 видеокадр)
Время предзагрузки промежутка : 500 мс.

Скриншот c названием фильма

Скриншоты


[Профиль] [ЛС]

Создавать темы 06-Авг-2015 23:18 (спустя 11 месяцев 24 дня)

Топик был перенесен из форума Фильмы до 2014 года в форум Фильмы до 2012 года
sergej644
 

Создавать темы 12-Июн-2016 08:13 (спустя 1 год 9 месяцев)

Топик был перенесен из форума Фильмы 2011 года в форум Фильмы 2009 года
Russian Mafia
 
Кто просматривает тему:

Форум Тема Автор Размер
History History: Проклятие острова Оук (сезон 2) / The Curse of Oak Island [2014, Познавательный, History Channel HD, DVB] TorrentFilm 4.77 GB
Action NecroVisioN: Lost Company / NecroVisioN: Проклятая рота [L] [RUS / RUS] (2010) (1.001) TorrentFilm 3.15 GB
National Geographic NG: Исследователь 2.0: Проклятие затерянного города: Легенда о "Городе обезьяньего бога" / Explorer. Legend of the monkey God [сезон 8 эпизод 02] (Graham Townsley) [2015 г., Документальный,... skorpionN 1.44 GB
Фильмы (HD Rips | 720p, 1080p) Деревня проклятых / Village of the Damned (Джон Карпентер) [1995 г., ужасы, фантастика, триллер, BDRip 720p] [MVO, DVO, AVO] Bathory 4.93 GB
Фильмы (HD Rips | 720p, 1080p) Долина проклятий / Damnation Alley (1977) BDRip 1080p от Silverok | A Russian Mafia 9.06 GB
Приключения, Квесты, Логические Затерянные земли 3: Проклятое золото. Коллекционное издание (2016) PC достали все 1.11 GB
Боевики, детективы, триллеры Климкович Сергей - Хакер 01. Проклятый (2014) МР3 sergej644 371 MB
Фильмы (HD DVD, Blu-ray и BDRemux) Мумия / Проклятье фараонов / The Mummy (Теренс Фишер / Terence Fisher) [1959, Великобритания, ужасы, BDRemux 1080p] MVO (DVD Магия) + DVO (НТВ+) + Sub Eng + Original Eng sergej644 16.76 GB
Показать сообщения:    

Текущее время: Сегодня 20:33

Часовой пояс: GMT



Вы не можете начинать темы
Вы не можете отвечать на сообщения
Вы не можете редактировать свои сообщения
Вы не можете удалять свои сообщения
Вы не можете голосовать в опросах
Вы не можете прикреплять файлы к сообщениям
Вы не можете скачивать файлы