Прозрение / Глаза Хулии / Глаза Джулии / Los ojos de Julia (Гильем Моралес / Guillem Morales) [2010, Испания, ужасы, триллер, детектив, BDRip] DVO

 
Автор Сообщение

TorrentFilm ®

Пол:

Стаж: 2 года

Сообщений: 7741



Награды: Нет

Торрент-статистика

Создавать темы 03-Фев-2016 00:08

[Цитировать]

Прозрение / Глаза Хулии / Глаза Джулии / Los ojos de Julia
Страна: Испания
Жанр: ужасы, триллер, детектив
Год выпуска: 2010
Продолжительность: 01:57:13
Перевод: Профессиональный (двухголосый закадровый)
Cубтитры: нет
Режиссер: Гильем Моралес / Guillem Morales
В ролях: Белен Руэда, Льюис Омар, Пабло Дерки, Франсеск Орелья, Хоан Дальмау, Хулия Гутьеррес Каба, Борис Руис, Дэни Кодина, Андреа Эрмоса, Даниэль Грао
Описание: Бывший астроном Джулия, страдающая от прогрессирующей болезни глаз, обнаруживает свою сестру-близнеца Сару задохнувшейся в петле в подвале ее старого дома. Официальная версия полиции — самоубийство; причина трагедии — полная потеря зрения в результате того же заболевания.
Однако Джулия инстинктивно чувствует, что Сару безжалостно и расчетливо убили. Несмотря на безразличие служителей закона и настороженность ее спутника жизни Исаака, она начинает собственное расследование. Найти убийцу ей нужно до того, как в ее глазах окончательно померкнет свет.

Сэмпл
Качество видео: BDRip (Исходник: BDRemux 1080p | NNM-Club)
Формат видео: AVI
Видео: 720x304 (2.37:1), 23.976 fps, XviD build 73 ~1327 kbps avg, 0.25 bit/pixel
Аудио: 48 kHz, AC3 Dolby Digital, 3/2 (L,C,R,l,r) + LFE ch, ~448 kbps

MediaInfo

Общее
Полное имя : D:\Фильмы на раздачу\Прозрение (2010) BDRip 1,46.avi
Формат : AVI
Формат/Информация : Audio Video Interleave
Размер файла : 1,46 Гбайт
Продолжительность : 1 ч. 57 м.
Общий поток : 1785 Кбит/сек
Программа кодирования : VirtualDubMod 1.5.10.3 | www.virtualdub-fr.org || (build 2550/release)
Библиотека кодирования : VirtualDubMod build 2550/release
Видео
Идентификатор : 0
Формат : MPEG-4 Visual
Профиль формата : Advanced Simple@L5
Параметр BVOP формата : 1
Параметр QPel формата : Нет
Параметр GMC формата : Без точки перехода
Параметр матрицы формата : Выборочная
Идентификатор кодека : XVID
Идентификатор кодека/Подсказка : XviD
Продолжительность : 1 ч. 57 м.
Битрейт : 1328 Кбит/сек
Ширина : 720 пикселей
Высота : 304 пикселя
Соотношение сторон : 2,35:1
Частота кадров : 23,976 (23976/1000) кадра/сек
Цветовое пространство : YUV
Субдискретизация насыщенности : 4:2:0
Битовая глубина : 8 бит
Тип развёртки : Прогрессивная
Метод сжатия : С потерями
Бит/(Пиксели*Кадры) : 0.253
Размер потока : 1,09 Гбайт (74%)
Библиотека кодирования : XviD 73
Аудио
Идентификатор : 1
Формат : AC-3
Формат/Информация : Audio Coding 3
Расширение режима : CM (complete main)
Параметр Endianness формата : Big
Идентификатор кодека : 2000
Продолжительность : 1 ч. 57 м.
Вид битрейта : Постоянный
Битрейт : 448 Кбит/сек
Каналы : 6 каналов
Расположение каналов : Front: L C R, Side: L R, LFE
Частота : 48,0 КГц
Частота кадров : 31,250 кадров/сек (1536 spf)
Метод сжатия : С потерями
Размер потока : 376 Мбайт (25%)
Выравнивание : Разделение по промежуткам
Продолжительность промежутка : 42 мс. (1,00 видеокадр)
Время предзагрузки промежутка : 500 мс.

Скриншоты

[Профиль] [ЛС]

Создавать темы 12-Июн-2016 07:53 (спустя 4 месяца 9 дней)

Топик был перенесен из форума Фильмы 2011 года в форум Фильмы 2010 года
Russian Mafia
 
Кто просматривает тему:

Форум Тема Автор Размер
Программы [Разное] Прозрачный Google Play 1.0 [Android 2.2, RUS] TorrentFilm 8 MB
Показать сообщения:    

Текущее время: Сегодня 14:08

Часовой пояс: GMT



Вы не можете начинать темы
Вы не можете отвечать на сообщения
Вы не можете редактировать свои сообщения
Вы не можете удалять свои сообщения
Вы не можете голосовать в опросах
Вы не можете прикреплять файлы к сообщениям
Вы не можете скачивать файлы