Прогулки с динозаврами 3D / Walking with Dinosaurs 3D (Бэрри Кук, Нил Найтингейл / Barry Cook, Neil Nightingale) [2013, семейный, HDRip] + original (Eng)

 
Автор Сообщение

reversefile ®

Пол:

Стаж: 4 года 5 месяцев

Сообщений: 842

Откуда: ReverseFile.org



Награды: Нет

Торрент-статистика

Создавать темы 11-Авг-2014 06:20

[Цитировать]

Прогулки с динозаврами 3D
Walking with Dinosaurs 3D

«Величайшее приключение за 70 миллионов лет»
- Год выпуска: 2013
Страна: США, Великобритания, Индия
Жанр: семейный
Продолжительность: 01:27:23
Перевод: Профессиональный (дублированный) лицензия
Русские субтитры: нет
+ Оригинальная аудиодорожка: Английский
Режиссер: Бэрри Кук, Нил Найтингейл / Barry Cook, Neil Nightingale-В ролях: Чарли Роу, Карл Урбан, Ангури Райс, Джон Легуизамо, Джастин Лонг, Скайлер Стоун, Тия Сиркар, Клэй Сэвадж, Джуд Тинсели, Мэри Мэтилин Маусер-Описание: «Прогулки с динозаврами» - это увлекательное путешествие с полным погружением в 3D-реальность, созданную по инновационной технологии CGI. Мы увидим, как выглядели динозавры, как они жили и с какими опасностями им пришлось столкнуться. Главный герой истории – храбрый динозаврик Патчи, он самый маленький в семье, но именно ему предстоит стать лидером и спасти своих сородичей.-Сэмпл | kinopoisk.ru | imdb.com
Качество: HDRip | исх. BDRip 720p
Формат: AVI
Видео: 704x304 (2.35:1), 23,976 fps, XviD build 65, ~2151 kbps avg, 0.41 bit/pixel
Аудио# 1: 48.0 kHz, AC3 Dolby Digital, 3/2 (L,C,R,l,r) + LFE ch, ~384.00 kbps avg (Dub)
Аудио# 2: 48.0 kHz, AC3 Dolby Digital, 3/2 (L,C,R,l,r) + LFE ch, ~384.00 kbps avg (Eng)

MediaInfo

ОбщееПолное имя : A:\Фильмы\Walking.With.Dinosaurs.2013.HDRip.aviФормат : AVIФормат/Информация : Audio Video InterleaveРазмер файла : 1,79 ГбайтПродолжительность : 1 ч. 27 м.Общий поток : 2932 Кбит/секПрограмма кодирования : VirtualDubMod 1.5.10.2 (build 2540/release)Библиотека кодирования : VirtualDubMod build 2540/release
ВидеоИдентификатор : 0Формат : MPEG-4 VisualПрофиль формата : Advanced Simple@L5Параметр BVOP формата : 1Параметр QPel формата : НетПараметр GMC формата : Без точки переходаПараметр матрицы формата : ВыборочнаяИдентификатор кодека : XVIDИдентификатор кодека/Подсказка : XviDПродолжительность : 1 ч. 27 м.Битрейт : 2151 Кбит/секШирина : 704 пикселяВысота : 304 пикселяСоотношение сторон : 2,35:1Частота кадров : 23,976 кадра/секЦветовое пространство : YUVСубдискретизация насыщенности : 4:2:0Битовая глубина : 8 битТип развёртки : ПрогрессивнаяМетод сжатия : С потерямиБит/(Пиксели*Кадры) : 0.419Размер потока : 1,31 Гбайт (73%)Библиотека кодирования : XviD 65
Аудио #1Идентификатор : 1Формат : AC-3Формат/Информация : Audio Coding 3Расширение режима : CM (complete main)Параметр Endianness формата : BigИдентификатор кодека : 2000Продолжительность : 1 ч. 27 м.Вид битрейта : ПостоянныйБитрейт : 384 Кбит/секКаналы : 6 каналовРасположение каналов : Front: L C R, Side: L R, LFEЧастота : 48,0 КГцБитовая глубина : 16 битМетод сжатия : С потерямиРазмер потока : 240 Мбайт (13%)Выравнивание : Разделение по промежуткамПродолжительность промежутка : 42 мс. (1,00 видеокадр)Время предзагрузки промежутка : 500 мс.
Аудио #2Идентификатор : 2Формат : AC-3Формат/Информация : Audio Coding 3Расширение режима : CM (complete main)Параметр Endianness формата : BigИдентификатор кодека : 2000Продолжительность : 1 ч. 27 м.Вид битрейта : ПостоянныйБитрейт : 384 Кбит/секКаналы : 6 каналовРасположение каналов : Front: L C R, Side: L R, LFEЧастота : 48,0 КГцБитовая глубина : 16 битМетод сжатия : С потерямиРазмер потока : 240 Мбайт (13%)Выравнивание : Разделение по промежуткамПродолжительность промежутка : 42 мс. (1,00 видеокадр)Время предзагрузки промежутка : 500 мс.

Скриншоты


[Профиль] [ЛС]
Показать сообщения:    

Текущее время: Сегодня 15:54

Часовой пояс: GMT



Вы не можете начинать темы
Вы не можете отвечать на сообщения
Вы не можете редактировать свои сообщения
Вы не можете удалять свои сообщения
Вы не можете голосовать в опросах
Вы не можете прикреплять файлы к сообщениям
Вы не можете скачивать файлы