Прогулки с динозаврами / Walking with Dinosaurs (Бэрри Кук, Нил Найтингейл / Barry Cook, Neil Nightingale) [2013, США, Великобритания, Индия, анимация, семейный, BDRip-AVC] DUB + Original Eng + Sub (Rus, Eng)

 
Автор Сообщение

reversefile ®

Пол:

Стаж: 4 года 5 месяцев

Сообщений: 842

Откуда: ReverseFile.org



Награды: Нет

Торрент-статистика

Создавать темы 11-Авг-2014 06:20

[Цитировать]

Прогулки с динозаврами / Walking with Dinosaurs Страна: США, Великобритания, Индия
Жанр: Анимация, приключения, семейный
Год выпуска: 2013
Продолжительность: 1:27:30
Перевод: Профессиональный (дублированный) Лицензия
Cубтитры: русские, английские
Оригинальная аудиодорожка: Английский
Режиссер: Бэрри Кук / Barry Cook, Нил Найтингейл / Neil Nightingale
В ролях: Чарли Роу / Charlie Rowe (Рикки), Карл Урбан / Karl Urban (дядя Зак), Ангури Райс / Angourie Rice (Джейд), Джон Легуизамо / John Leguizamo (Алекс [голос]), Джастин Лонг / Justin Long (Патчи [голос]) и др.
Описание:
Когда-то давным-давно... а если точнее, 70 миллионов лет назад, во времена, которые теперь называют Верхним мелом, жил-был динозаврик по имени Патчи. Он был пахиринозавром, питался травой и считался самым слабым и бесполезным членом своего стада. Ещё бы, он был совсем маленьким, по сравнению с сородичами, в его костном воротнике была нелепая дырка, и никто не воспринимал его всерьез, несмотря на постоянные попытки Патчи доказать, что он ничуть не хуже остальных.
Впрочем, всё изменилось, когда мигрирующее стадо подверглось нападению хищных горгозавров и потеряло вожака. Именно в отчаянный момент и выяснилось, что порой смекалка куда важнее физической силы, и что из Патчи может вырасти отличный вожак. Эту историю и расскажет зрителям очевидец событий - маленькая птичка по прозвищу Алекс, живущая бок о бок с пахиринозаврами.
Красочная компьютерная графика и увлекательные приключения Патчи делают этот семейный фильм отличным зрелищем для взрослых и детей.
Качество видео: BDRip-AVC
Формат видео: MKV
Видео: AVC/H264, High@L4.1, 1120x464 (2,35:1), 23,976 fps, 3000 kbps, 0.241 bit/pixel
Аудио #1: Русский дублированный: AC3, 48 kHz, 5.1ch, 448 kbps
Аудио #2: Английский оригинал: AC3, 48 kHz, 5.1ch, 448 kbps
Субтитры: Русские, английские

MediaInfo / x264 logx264 log (pass 2)

x264 [info]: using SAR=1/1
x264 [info]: using cpu capabilities: MMX2 SSE2Fast SSSE3 SSE4.2
x264 [info]: profile High, level 4.1
x264 [info]: frame I:990 Avg QP:15.90 size:122982
x264 [info]: frame P:30200 Avg QP:18.81 size: 31518
x264 [info]: frame B:94705 Avg QP:20.87 size: 9447
x264 [info]: consecutive B-frames: 2.3% 2.8% 10.6% 37.6% 19.1% 20.8% 3.4% 1.6% 0.9% 1.1%
x264 [info]: mb I I16..4: 4.4% 73.6% 22.1%
x264 [info]: mb P I16..4: 0.7% 11.7% 1.8% P16..4: 31.3% 19.1% 20.1% 2.3% 1.0% skip:12.1%
x264 [info]: mb B I16..4: 0.1% 1.3% 0.3% B16..8: 30.1% 12.1% 4.9% direct: 7.7% skip:43.5% L0:36.9% L1:37.3% BI:25.7%
x264 [info]: 8x8 transform intra:80.0% inter:53.9%
x264 [info]: direct mvs spatial:98.3% temporal:1.7%
x264 [info]: coded y,uvDC,uvAC intra: 92.9% 88.3% 66.2% inter: 29.1% 22.0% 6.3%
x264 [info]: i16 v,h,dc,p: 44% 13% 5% 38%
x264 [info]: i8 v,h,dc,ddl,ddr,vr,hd,vl,hu: 8% 12% 7% 9% 12% 11% 14% 11% 16%
x264 [info]: i4 v,h,dc,ddl,ddr,vr,hd,vl,hu: 6% 10% 4% 8% 16% 12% 17% 10% 17%
x264 [info]: i8c dc,h,v,p: 45% 24% 14% 17%
x264 [info]: Weighted P-Frames: Y:10.5% UV:6.2%
x264 [info]: ref P L0: 51.9% 15.4% 13.1% 6.2% 4.4% 3.3% 2.6% 1.6% 1.2% 0.2% 0.0%
x264 [info]: ref B L0: 77.2% 11.5% 5.0% 2.5% 1.7% 1.2% 0.7% 0.2%
x264 [info]: ref B L1: 93.5% 6.5%
x264 [info]: kb/s:2998.75

MediaInfo

Общее
Полное имя : Walking.with.Dinosaurs.2013.BDRip-AVC.@nd.mkv
Формат : Matroska
Версия формата : Version 4 / Version 2
Размер файла : 2,38 Гбайт
Продолжительность : 1 ч. 27 м.
Общий поток : 3897 Кбит/сек
Дата кодирования : UTC 2014-04-26 12:18:56
Программа кодирования : mkvmerge v6.5.0 ('Isn't she lovely') built on Oct 20 2013 12:50:05
Библиотека кодирования : libebml v1.3.0 + libmatroska v1.4.1
Видео
Идентификатор : 1
Формат : AVC
Формат/Информация : Advanced Video Codec
Профиль формата : High@L4.1
Параметр CABAC формата : Да
Параметр ReFrames формата : 9 кадров
Идентификатор кодека : V_MPEG4/ISO/AVC
Продолжительность : 1 ч. 27 м.
Битрейт : 3000 Кбит/сек
Ширина : 1120 пикселей
Высота : 464 пикселя
Соотношение сторон : 2,40:1
Режим частоты кадров : Постоянный
Частота кадров : 23,976 кадра/сек
Цветовое пространство : YUV
Субдискретизация насыщенности : 4:2:0
Битовая глубина : 8 бит
Тип развёртки : Прогрессивная
Бит/(Пиксели*Кадры) : 0.241
Размер потока : 1,79 Гбайт (75%)
Заголовок : Прогулки с динозаврами / Walking with Dinosaurs (2013) BDRip-AVC (c) @ndtwice Rip for RuTracker
Библиотека кодирования : x264 core 133 r2334 a3ac64b
Настройки программы : cabac=1 / ref=9 / deblock=1:-2:-2 / analyse=0x3:0x133 / me=umh / subme=10 / psy=1 / psy_rd=1.00:0.00 / mixed_ref=1 / me_range=48 / chroma_me=1 / trellis=2 / 8x8dct=1 / cqm=0 / deadzone=21,11 / fast_pskip=1 / chroma_qp_offset=-2 / threads=3 / lookahead_threads=1 / sliced_threads=0 / nr=0 / decimate=1 / interlaced=0 / bluray_compat=0 / constrained_intra=0 / bframes=9 / b_pyramid=2 / b_adapt=2 / b_bias=0 / direct=3 / weightb=1 / open_gop=0 / weightp=2 / keyint=250 / keyint_min=23 / scenecut=40 / intra_refresh=0 / rc=2pass / mbtree=0 / bitrate=3000 / ratetol=1.0 / qcomp=0.60 / qpmin=0 / qpmax=55 / qpstep=4 / cplxblur=20.0 / qblur=0.5 / ip_ratio=1.40 / pb_ratio=1.30 / aq=1:1.00 / zones=117570,125895,b=0.3
Язык : English
Default : Да
Forced : Нет
Аудио #1
Идентификатор : 2
Формат : AC-3
Формат/Информация : Audio Coding 3
Расширение режима : CM (complete main)
Параметр Endianness формата : Big
Идентификатор кодека : A_AC3
Продолжительность : 1 ч. 27 м.
Вид битрейта : Постоянный
Битрейт : 448 Кбит/сек
Каналы : 6 каналов
Расположение каналов : Front: L C R, Side: L R, LFE
Частота : 48,0 КГц
Битовая глубина : 16 бит
Метод сжатия : С потерями
Размер потока : 280 Мбайт (11%)
Заголовок : DUB лицензия
Язык : Russian
Default : Да
Forced : Нет
Аудио #2
Идентификатор : 3
Формат : AC-3
Формат/Информация : Audio Coding 3
Расширение режима : CM (complete main)
Параметр Endianness формата : Big
Идентификатор кодека : A_AC3
Продолжительность : 1 ч. 27 м.
Вид битрейта : Постоянный
Битрейт : 448 Кбит/сек
Каналы : 6 каналов
Расположение каналов : Front: L C R, Side: L R, LFE
Частота : 48,0 КГц
Битовая глубина : 16 бит
Метод сжатия : С потерями
Размер потока : 280 Мбайт (11%)
Заголовок : Original
Язык : English
Default : Нет
Forced : Нет
Текст #1
Идентификатор : 4
Формат : UTF-8
Идентификатор кодека : S_TEXT/UTF8
Идентификатор кодека/Информация : UTF-8 Plain Text
Заголовок : Subs Rus
Язык : Russian
Default : Да
Forced : Нет
Текст #2
Идентификатор : 5
Формат : UTF-8
Идентификатор кодека : S_TEXT/UTF8
Идентификатор кодека/Информация : UTF-8 Plain Text
Заголовок : Subs Eng
Язык : English
Default : Нет
Forced : Нет

Скриншоты

[Профиль] [ЛС]
Показать сообщения:    

Текущее время: Сегодня 09:57

Часовой пояс: GMT



Вы не можете начинать темы
Вы не можете отвечать на сообщения
Вы не можете редактировать свои сообщения
Вы не можете удалять свои сообщения
Вы не можете голосовать в опросах
Вы не можете прикреплять файлы к сообщениям
Вы не можете скачивать файлы