Прогулка / The Walk (2015) DVD5

 
Автор Сообщение

BOSS ®

Пол:

Стаж: 2 года 2 месяца

Сообщений: 3751

Откуда: ODESSA



Награды: 20 (Подробнее)

Top Keeper 3 (Количество: 1) Top Releaser 4 (Количество: 1) Mega Releaser 1 (Количество: 1)
Торрент-статистика

Создавать темы 29-Фев-2016 16:55

[Цитировать]

--Информация о фильме
Название: Прогулка
Оригинальное название: The Walk
Год выхода: 2015
Жанр: триллер, драма, приключения, биография
Режиссер: Роберт Земекис
В ролях: Джозеф Гордон-Левитт, Бен Кингсли, Стив Валентайн, Шарлотта Ле Бон, Джеймс Бэдж Дэйл, Бен Шварц, Бенедикт Сэмюэл, Мизинга Мвинга, Дэниэл Аррош, Джейсон Делайн-О фильме:
Вы боитесь высоты? А можете представить себя идущим по натянутому канату на высоте более 400м без всякой страховки? Потоки ветра обдувают вас, а внизу — город и тысячи взволнованных взглядов, устремленных вверх.
История о том, как французский канатоходец Филипп Пети отважился совершить легендарный трюк — пройти без страховки по канату, натянутому между небоскребами в Нью-Йорке.- -Страна: США
Студия: Sony Pictures Entertainment (SPE), TriStar Productions
Продолжительность: 118 мин. / 01:58
Перевод: полное дублирование-Файл
Кодек: MPEG2
Качество: DVD5 (сжатый)
Видео: PAL 16:9 (720x576@1024x576) VBR 4599 Kbps, 25.000 fps
Аудио 1: Dolby AC3, 6 ch, 48.0 KHz, 448 Kbps (английский)
Аудио 2: Dolby AC3, 6 ch, 48.0 KHz, 384 Kbps (русский)
Субтитры: русские, английские, болгарские, венгерские, греческие, иврит, исландские, латышские, литовские, польские, португальские, румынские, сербские, словацкие, словенские, турецкие, хорватские, чешские, эстонские--

Процесс изготовления диска

Исходник: Прогулка / The Walk (2015) DVD9 | лицензия
Удалены: бонусы, предупреждающие надписи, чешская, венгерская, турецкая и польская звуковые дорожки (в меню кнопки затерты). Команды диска переписаны заново, оставлен один VTS.
Видео сжато на 17.7%
Меню: статичное, недействующие кнопки затерты и закрыты.
Обработка и сжатие: DVD ReMake Pro + DVD Rebuilder + CCE SP2 [7 проходов] + Работа с меню (Adobe PhotoShop и MuxMan).
Автор релиза: J9-1000

MediaInfo

Общее
Полное имя : D:The Walk (2015) DVD5VIDEO_TSVTS_01_2.VOB
Формат : MPEG-PS
Размер файла : 1024 Мбайт
Продолжительность : 25 м.
Режим общего битрейта : Переменный
Общий поток : 5541 Кбит/сек
Видео
Идентификатор : 224 (0xE0)
Формат : MPEG Video
Версия формата : Version 2
Профиль формата : Main@Main
Параметр BVOP формата : Да
Параметр матрицы формата : Выборочная
Параметр GOP формата : Variable
Продолжительность : 25 м.
Вид битрейта : Переменный
Битрейт : 4599 Кбит/сек
Максимальный битрейт : 9800 Кбит/сек
Ширина : 720 пикселей
Высота : 576 пикселей
Соотношение сторон : 16:9
Частота кадров : 25,000 кадров/сек
Стандарт вещания : PAL
Цветовое пространство : YUV
Субдискретизация насыщенности : 4:2:0
Битовая глубина : 8 бит
Тип развёртки : Прогрессивная
Порядок развёртки : Верхнее поле первое
Метод сжатия : С потерями
Бит/(Пиксели*Кадры) : 0.444
Временной код первого кадра : 00:24:21:03
Оригинал временного кода : Group of pictures header
GOP, открыто/закрыто : Открыто
Размер потока : 850 Мбайт (83%)
Аудио #1
Идентификатор : 189 (0xBD)-128 (0x80)
Формат : AC-3
Формат/Информация : Audio Coding 3
Расширение режима : CM (complete main)
Параметр Endianness формата : Big
Режим смешивания : DVD-Video
Продолжительность : 25 м.
Вид битрейта : Постоянный
Битрейт : 448 Кбит/сек
Каналы : 6 каналов
Расположение каналов : Front: L C R, Side: L R, LFE
Частота : 48,0 КГц
Битовая глубина : 16 бит
Метод сжатия : С потерями
Задержка видео : -368 мс.
Размер потока : 82,8 Мбайт (8%)
Аудио #2
Идентификатор : 189 (0xBD)-132 (0x84)
Формат : AC-3
Формат/Информация : Audio Coding 3
Расширение режима : CM (complete main)
Параметр Endianness формата : Big
Режим смешивания : DVD-Video
Продолжительность : 25 м.
Вид битрейта : Постоянный
Битрейт : 384 Кбит/сек
Каналы : 6 каналов
Расположение каналов : Front: L C R, Side: L R, LFE
Частота : 48,0 КГц
Битовая глубина : 16 бит
Метод сжатия : С потерями
Задержка видео : -368 мс.
Размер потока : 71,0 Мбайт (7%)
Текст #1
Идентификатор : 189 (0xBD)-32 (0x20)
Формат : RLE
Формат/Информация : Run-length encoding
Режим смешивания : DVD-Video
Продолжительность : 25 м.
Задержка видео : 2 с. 40 мс.
Текст #2
Идентификатор : 189 (0xBD)-33 (0x21)
Формат : RLE
Формат/Информация : Run-length encoding
Режим смешивания : DVD-Video
Продолжительность : 25 м.
Задержка видео : 1 с. 880 мс.
Текст #3
Идентификатор : 189 (0xBD)-34 (0x22)
Формат : RLE
Формат/Информация : Run-length encoding
Режим смешивания : DVD-Video
Продолжительность : 25 м.
Задержка видео : 1 с. 800 мс.
Текст #4
Идентификатор : 189 (0xBD)-35 (0x23)
Формат : RLE
Формат/Информация : Run-length encoding
Режим смешивания : DVD-Video
Продолжительность : 25 м.
Задержка видео : 1 с. 880 мс.
Текст #5
Идентификатор : 189 (0xBD)-36 (0x24)
Формат : RLE
Формат/Информация : Run-length encoding
Режим смешивания : DVD-Video
Продолжительность : 25 м.
Задержка видео : 1 с. 880 мс.
Текст #6
Идентификатор : 189 (0xBD)-37 (0x25)
Формат : RLE
Формат/Информация : Run-length encoding
Режим смешивания : DVD-Video
Продолжительность : 25 м.
Задержка видео : 1 с. 800 мс.
Текст #7
Идентификатор : 189 (0xBD)-38 (0x26)
Формат : RLE
Формат/Информация : Run-length encoding
Режим смешивания : DVD-Video
Продолжительность : 25 м.
Задержка видео : 1 с. 880 мс.
Текст #8
Идентификатор : 189 (0xBD)-39 (0x27)
Формат : RLE
Формат/Информация : Run-length encoding
Режим смешивания : DVD-Video
Продолжительность : 25 м.
Задержка видео : 1 с. 880 мс.
Текст #9
Идентификатор : 189 (0xBD)-40 (0x28)
Формат : RLE
Формат/Информация : Run-length encoding
Режим смешивания : DVD-Video
Продолжительность : 25 м.
Задержка видео : 2 с. 40 мс.
Текст #10
Идентификатор : 189 (0xBD)-41 (0x29)
Формат : RLE
Формат/Информация : Run-length encoding
Режим смешивания : DVD-Video
Продолжительность : 25 м.
Задержка видео : 1 с. 880 мс.
Текст #11
Идентификатор : 189 (0xBD)-42 (0x2A)
Формат : RLE
Формат/Информация : Run-length encoding
Режим смешивания : DVD-Video
Продолжительность : 25 м.
Задержка видео : 1 с. 880 мс.
Текст #12
Идентификатор : 189 (0xBD)-43 (0x2B)
Формат : RLE
Формат/Информация : Run-length encoding
Режим смешивания : DVD-Video
Продолжительность : 25 м.
Задержка видео : 1 с. 880 мс.
Текст #13
Идентификатор : 189 (0xBD)-44 (0x2C)
Формат : RLE
Формат/Информация : Run-length encoding
Режим смешивания : DVD-Video
Продолжительность : 25 м.
Задержка видео : 1 с. 880 мс.
Текст #14
Идентификатор : 189 (0xBD)-45 (0x2D)
Формат : RLE
Формат/Информация : Run-length encoding
Режим смешивания : DVD-Video
Продолжительность : 25 м.
Задержка видео : 1 с. 880 мс.
Текст #15
Идентификатор : 189 (0xBD)-46 (0x2E)
Формат : RLE
Формат/Информация : Run-length encoding
Режим смешивания : DVD-Video
Продолжительность : 25 м.
Задержка видео : 1 с. 880 мс.
Текст #16
Идентификатор : 189 (0xBD)-47 (0x2F)
Формат : RLE
Формат/Информация : Run-length encoding
Режим смешивания : DVD-Video
Продолжительность : 25 м.
Задержка видео : 2 с. 40 мс.
Текст #17
Идентификатор : 189 (0xBD)-48 (0x30)
Формат : RLE
Формат/Информация : Run-length encoding
Режим смешивания : DVD-Video
Продолжительность : 25 м.
Задержка видео : 1 с. 880 мс.
Текст #18
Идентификатор : 189 (0xBD)-49 (0x31)
Формат : RLE
Формат/Информация : Run-length encoding
Режим смешивания : DVD-Video
Продолжительность : 25 м.
Задержка видео : 1 с. 840 мс.
Текст #19
Идентификатор : 189 (0xBD)-50 (0x32)
Формат : RLE
Формат/Информация : Run-length encoding
Режим смешивания : DVD-Video
Продолжительность : 25 м.
Задержка видео : 1 с. 880 мс.
Текст #20
Идентификатор : 189 (0xBD)-51 (0x33)
Формат : RLE
Формат/Информация : Run-length encoding
Режим смешивания : DVD-Video
Продолжительность : 25 м.
Задержка видео : 1 с. 880 мс.
Меню

Скриншоты


[Профиль] [ЛС]
Показать сообщения:    

Текущее время: Сегодня 06:25

Часовой пояс: GMT



Вы не можете начинать темы
Вы не можете отвечать на сообщения
Вы не можете редактировать свои сообщения
Вы не можете удалять свои сообщения
Вы не можете голосовать в опросах
Вы не можете прикреплять файлы к сообщениям
Вы не можете скачивать файлы