Прогулка / The Walk (2015) BDRip 720p | Лицензия

 
Автор Сообщение

BOSS ®

Пол:

Стаж: 3 года 2 месяца

Сообщений: 8593

Откуда: ODESSA



Награды: 22 (Подробнее)

Top Releaser 3 (Количество: 1) Mega Releaser 4 (Количество: 1) Top Keeper 4 (Количество: 1)
Торрент-статистика

Создавать темы 27-Янв-2016 17:36

[Цитировать]

Информация о фильме
Название: Прогулка
Оригинальное название: The Walk
Год выхода: 2015
Жанр: триллер, драма, приключения, биография
Режиссер: Роберт Земекис
В ролях: Джозеф Гордон-Левитт, Бен Кингсли, Стив Валентайн, Шарлотта Ле Бон, Джеймс Бэдж Дэйл, Бен Шварц, Бенедикт Сэмюэл, Мизинга Мвинга, Дэниэл Аррош, Джейсон Делайн
О фильме:
Вы боитесь высоты? А можете представить себя идущим по натянутому канату на высоте более 400м без всякой страховки? Потоки ветра обдувают вас, а внизу - город и тысячи взволнованных взглядов, устремленных вверх.
История о том, как французский канатоходец Филипп Пети отважился совершить легендарный трюк - пройти без страховки по канату, натянутому между небоскребами в Нью-Йорке.

Страна: США
Студия: ImageMovers, Mel's Cite du Cinema, Sony Pictures Entertainment (SPE), TriStar Productions
Продолжительность: 02:03:11
Перевод: Профессиональный (дублированный) Blu-ray EUR
Файл
Формат: Matroska
Видео: 1280x532 at 23.976 fps, x264@L4.1, ~4500 kbps avg
Aудио#1: Russian: 48 kHz, AC3, 3/2 (L,C,R,l,r) + LFE ch, ~640.00 kbps avg |Дубляж, Blu-ray EUR|
Aудио#2: English: 48 kHz, DTS, 3/2 (L,C,R,l,r) + LFE ch, ~1509 kbps avg
Субтитры: Russian (Forced, iTunes), Russian, English (Forced, iTunes), English
***Сохранены оригинальные главы как на Blu-ray.

Знаете ли Вы, что...

Во время съёмок фильма актеры каждое воскресенье собирались вместе и смотрели фильмы Роберта Земекиса.
Джозеф Гордон-Левитт бегло говорит по-французски, но для фильма ему пришлось подтянуть его парижский акцент. Слушая Филиппа Пети, он также отточил франко-американский акцент канатоходца и перенял его манеру речи.
По словам режиссёра Роберта Земекиса, Джозеф Гордон-Левитт был единственным актёром, которого он когда-либо рассматривал на роль Филиппа Пети.
Роберт Земекис загорелся мечтой сделать этот фильм ещё 10 лет назад, когда ему в руки попала детская книга «Человек, который шел между башнями» («The Man Who Walked Between The Towers»).
Сцена с макетом башен близнецов является отсылкой к трилогии Роберта Земекиса «Назад в будущее».
В ходе восьмидневного семинара Филипп Пети лично обучал Джозефа Гордона-Левитта жонглированию и ходьбе по канату. К его окончанию актер мог сам идти по канату, расположенному на высоте 12 футов (3,6 м). Именно на такой высоте были отсняты сцены прогулки между зданиями Всемирного торгового центра.
Антенны на северной башне Всемирного торгового центра не было до 1978 года, а это четырьмя годами позже того времени, когда происходили описываемые в фильме события.
Когда два офицера пытаются схватить Филиппа за руку во время его «прогулки», в одном кадре они находятся буквально в шаге от края здания, в следующем кадре они оказываются гораздо дальше, чем были до этого.
1 августа 1974 года был четверг, в фильме же говорится, что это была среда.

MI

Общее
Уникальный идентификатор : 189334410794825044569614203758651207258 (0x8E707B2B0685F4ADAC24701BAFE16E5A)
Полное имя : The Walk 2015 720p BluRay.x264-VietHD.mkv
Формат : Matroska
Версия формата : Version 2
Размер файла : 5,85 Гбайт
Продолжительность : 2 ч. 3 м.
Общий поток : 6796 Кбит/сек
Название фильма : BLUBIRD
Дата кодирования : UTC 2016-01-27 16:57:54
Программа кодирования : mkvmerge v7.9.0 ('Birds') 64bit
Библиотека кодирования : libebml v1.3.1 + libmatroska v1.4.2
Видео
Идентификатор : 1
Формат : AVC
Формат/Информация : Advanced Video Codec
Профиль формата : High@L4.1
Параметр CABAC формата : Да
Параметр ReFrames формата : 12 кадров
Идентификатор кодека : V_MPEG4/ISO/AVC
Продолжительность : 2 ч. 3 м.
Битрейт : 4512 Кбит/сек
Ширина : 1280 пикселей
Высота : 532 пикселя
Соотношение сторон : 2,40:1
Режим частоты кадров : Постоянный
Частота кадров : 23,976 кадра/сек
Цветовое пространство : YUV
Субдискретизация насыщенности : 4:2:0
Битовая глубина : 8 бит
Тип развёртки : Прогрессивная
Бит/(Пиксели*Кадры) : 0.276
Размер потока : 3,88 Гбайт (66%)
Библиотека кодирования : x264 core 146 r2538kMod 121396c
Настройки программы : cabac=1 / ref=12 / deblock=1:-3:-3 / analyse=0x3:0x133 / me=umh / subme=10 / psy=1 / fade_compensate=0.00 / psy_rd=1.00:0.00 / mixed_ref=1 / me_range=24 / chroma_me=1 / trellis=2 / 8x8dct=1 / cqm=0 / deadzone=21,11 / fast_pskip=0 / chroma_qp_offset=-2 / threads=12 / lookahead_threads=3 / sliced_threads=0 / nr=0 / decimate=0 / interlaced=0 / bluray_compat=0 / constrained_intra=0 / fgo=0 / bframes=11 / b_pyramid=2 / b_adapt=2 / b_bias=0 / direct=3 / weightb=1 / open_gop=0 / weightp=2 / keyint=250 / keyint_min=23 / scenecut=40 / intra_refresh=0 / rc_lookahead=60 / rc=crf / mbtree=0 / crf=16.0000 / qcomp=0.65 / qpmin=0 / qpmax=69 / qpstep=4 / vbv_maxrate=62500 / vbv_bufsize=78125 / crf_max=0.0 / nal_hrd=none / filler=0 / ip_ratio=1.30 / pb_ratio=1.20 / aq=3:0.75
Язык : English
Default : Да
Forced : Нет
Цветовой диапазон : Limited
Коэффициенты матрицы : BT.709
Аудио #1
Идентификатор : 2
Формат : AC-3
Формат/Информация : Audio Coding 3
Расширение режима : CM (complete main)
Параметр Endianness формата : Big
Идентификатор кодека : A_AC3
Продолжительность : 2 ч. 3 м.
Вид битрейта : Постоянный
Битрейт : 640 Кбит/сек
Каналы : 6 каналов
Расположение каналов : Front: L C R, Side: L R, LFE
Частота : 48,0 КГц
Метод сжатия : С потерями
Размер потока : 564 Мбайт (9%)
Язык : Russian
Default : Да
Forced : Нет
Аудио #2
Идентификатор : 3
Формат : DTS
Формат/Информация : Digital Theater Systems
Режим : 16
Параметр Endianness формата : Big
Идентификатор кодека : A_DTS
Продолжительность : 2 ч. 3 м.
Вид битрейта : Постоянный
Битрейт : 1509 Кбит/сек
Каналы : 6 каналов
Расположение каналов : Front: L C R, Side: L R, LFE
Частота : 48,0 КГц
Битовая глубина : 16 бит
Метод сжатия : С потерями
Размер потока : 1,30 Гбайт (22%)
Язык : English
Default : Нет
Forced : Нет
Текст #1
Идентификатор : 4
Формат : UTF-8
Идентификатор кодека : S_TEXT/UTF8
Идентификатор кодека/Информация : UTF-8 Plain Text
Заголовок : Forced
Язык : Russian
Default : Да
Forced : Нет
Текст #2
Идентификатор : 5
Формат : UTF-8
Идентификатор кодека : S_TEXT/UTF8
Идентификатор кодека/Информация : UTF-8 Plain Text
Язык : Russian
Default : Нет
Forced : Нет
Текст #3
Идентификатор : 6
Формат : UTF-8
Идентификатор кодека : S_TEXT/UTF8
Идентификатор кодека/Информация : UTF-8 Plain Text
Заголовок : Forced
Язык : English
Default : Нет
Forced : Нет
Текст #4
Идентификатор : 7
Формат : UTF-8
Идентификатор кодека : S_TEXT/UTF8
Идентификатор кодека/Информация : UTF-8 Plain Text
Язык : English
Default : Нет
Forced : Нет
Меню
00:00:00.000 : en:Chapter 1
00:05:15.773 : en:Chapter 2
00:10:06.147 : en:Chapter 3
00:14:51.807 : en:Chapter 4
00:23:30.867 : en:Chapter 5
00:32:22.148 : en:Chapter 6
00:41:46.879 : en:Chapter 7
00:46:32.414 : en:Chapter 8
00:55:38.460 : en:Chapter 9
01:04:37.373 : en:Chapter 10
01:11:17.314 : en:Chapter 11
01:17:40.405 : en:Chapter 12
01:24:37.072 : en:Chapter 13
01:33:46.746 : en:Chapter 14
01:42:21.927 : en:Chapter 15
01:50:29.539 : en:Chapter 16

Скриншоты

[Профиль] [ЛС]
Кто просматривает тему:

Форум Тема Автор Размер
Доисторический мир BBC: Прогулки с динозаврами / Walking with Dinosaurs [серии 1-6 из 6] (Тим Хайнс, Джаспер Джеймс) [1999 г., Документальный, история, археология, динозавры, HDTVRip-AVC 720p] skorpionN 5.93 GB
Доисторический мир BBC: Прогулки с динозаврами: Баллада о большом Але (спецвыпуск) / Walking With Dinosaurs: The Ballad Of Big Al [серии 1-2 из 2] (Кейт Бартлетт, Майкл Олмерт) [2000 г., Документальный, и... skorpionN 1.97 GB
Доисторический мир BBC: Прогулки с чудовищами / Walking with Beasts [серии 1-6 из 6] (Джаспер Джеймс, Найджел Патерсон) [2001 г., Документальный, исследование, реконструкция, HDTVRip-AVC 720p] skorpionN 5.87 GB
Зарубежное кино (CAMRip, Telesynch, SCR) Долгая прогулка Билли Линна в перерыве футбольного матча / Billy Lynn's Long Halftime Walk (2016) CAMRip | P BOSS 746 MB
Фильмы 2016 года Долгая прогулка Билли Линна в перерыве футбольного матча / Billy Lynn's Long Halftime Walk (2016) НDRip | L BOSS 2.05 GB
Фильмы 2006-2008 года Донки Панч / Морская прогулка / Donkey punch (Оливер Блэкберн / Oliver Blackburn) [2008, Великобритания, триллер, DVDRip-AVC] MVO + Original Eng TorrentFilm 2.18 GB
Фильмы до 2000 года Младенец на прогулке, или ползком от гангстеров / Baby's Day Out (1994) WEB-DLRip ODESSA 2.66 GB
Фильмы (HD DVD, Blu-ray и BDRemux) Прогулка / The Walk (2015) BDRemux 1080p | Лицензия BOSS 25.57 GB
Показать сообщения:    

Текущее время: Сегодня 07:25

Часовой пояс: GMT



Вы не можете начинать темы
Вы не можете отвечать на сообщения
Вы не можете редактировать свои сообщения
Вы не можете удалять свои сообщения
Вы не можете голосовать в опросах
Вы не можете прикреплять файлы к сообщениям
Вы не можете скачивать файлы