Прогулка среди могил / A Walk Among the Tombstones (Скотт Фрэнк / Scott Frank) [2014 г., детектив, триллер, криминал, драма, HDRip] DVO (Сладкая парочка)

 
Автор Сообщение

TorrentFilm ®

Пол:

Стаж: 2 года 7 месяцев

Сообщений: 7764



Награды: Нет

Торрент-статистика

Создавать темы 05-Янв-2015 00:01

[Цитировать]

Прогулка среди могил / A Walk Among the Tombstones«Люди боятся не того, чего стоит бояться» Год выпуска: 2014 г.
Страна: США
Жанр: детектив, триллер, криминал, драма
Продолжительность: 01:54:05
Перевод: Любительский (двухголосый закадровый) - [Сладкая парочка]
Cубтитры: нет
Режиссер: Скотт Фрэнк / Scott Frank
В ролях: Лиам Нисон, Дэн Стивенс, Дэвид Харбор, Бойд Холбрук, Себастьян Роше, Астро, Уитни Эйбл, Стефани Андужар, Марина Скверсьяти, Марк Консуэлос
Описание: Нью-Йорк охватывает волна странных и страшных убийств. Муж одной из жертв, наркобарон, нанимает бывшего полицейского, чтобы тот добрался до убийцы жены. Частный детектив Скаддер видит то, чего не замечает полиция, и проникает туда, куда копы боятся даже сунуть нос. Распутывая дьявольские преступления, он понимает, что люди боятся совсем не того.

Качество: HDRip (Исх. BDRip 720p)
Формат видео: AVI
Видео кодек: XviD
Аудио кодек: MP3
Видео: 688x288 (2.39:1), 23.976 fps, XviD build 73 ~776 kbps avg, 0.16 bit/pixel
Аудио: 48 kHz, MPEG Layer 3, 2 ch, ~128.00 kbps avg

MediaInfo

Общее
Полное имя : S:\Фильмы\Прогулка среди могил. 2014. HDRip (AleksSin).avi
Формат : AVI
Формат/Информация : Audio Video Interleave
Размер файла : 745 Мбайт
Продолжительность : 1 ч. 54 м.
Общий поток : 913 Кбит/сек
Программа кодирования : VirtualDubMod 1.5.10.3 | www.virtualdub-fr.org || (build 2550/release)
Библиотека кодирования : VirtualDubMod build 2550/release
Видео
Идентификатор : 0
Формат : MPEG-4 Visual
Профиль формата : Advanced Simple@L5
Параметр BVOP формата : 1
Параметр QPel формата : Нет
Параметр GMC формата : Без точки перехода
Параметр матрицы формата : Выборочная
Идентификатор кодека : XVID
Идентификатор кодека/Подсказка : XviD
Продолжительность : 1 ч. 54 м.
Битрейт : 776 Кбит/сек
Ширина : 688 пикс.
Высота : 288 пикс.
Соотношение сторон : 2,40:1
Частота кадров : 23,976 кадр/сек
Цветовое пространство : YUV
Подвыборка цветности : 4:2:0
Битовая глубина : 8 бит
Тип развёртки : Прогрессивная
Метод сжатия : С потерями
Бит/(Пиксели*Кадры) : 0.163
Размер потока : 633 Мбайт (85%)
Библиотека кодирования : XviD 73
Аудио
Идентификатор : 1
Формат : MPEG Audio
Версия формата : Version 1
Профиль формата : Layer 3
Идентификатор кодека : 55
Идентификатор кодека/Подсказка : MP3
Продолжительность : 1 ч. 54 м.
Вид битрейта : Постоянный
Битрейт : 128 Кбит/сек
Каналы : 2 канала
Частота : 48,0 КГц
Метод сжатия : С потерями
Размер потока : 104 Мбайт (14%)
Выравнивание : Соединение по промежуткам
Продолжительность промежутка : 42 мс. (1,00 видеокадр)
Время предзагрузки промежутка : 504 ms
Библиотека кодирования : LAME3.99r
Настройки программы : -m s -V 4 -q 2 -lowpass 17 -b 128

Скриншот c названием фильма

Скриншоты

[Профиль] [ЛС]
Кто просматривает тему:

Форум Тема Автор Размер
Доисторический мир BBC: Прогулки с динозаврами / Walking with Dinosaurs [серии 1-6 из 6] (Тим Хайнс, Джаспер Джеймс) [1999 г., Документальный, история, археология, динозавры, HDTVRip-AVC 720p] skorpionN 5.93 GB
Доисторический мир BBC: Прогулки с динозаврами: Баллада о большом Але (спецвыпуск) / Walking With Dinosaurs: The Ballad Of Big Al [серии 1-2 из 2] (Кейт Бартлетт, Майкл Олмерт) [2000 г., Документальный, и... skorpionN 1.97 GB
Доисторический мир BBC: Прогулки с чудовищами / Walking with Beasts [серии 1-6 из 6] (Джаспер Джеймс, Найджел Патерсон) [2001 г., Документальный, исследование, реконструкция, HDTVRip-AVC 720p] skorpionN 5.87 GB
Зарубежное кино (CAMRip, Telesynch, SCR) Долгая прогулка Билли Линна в перерыве футбольного матча / Billy Lynn's Long Halftime Walk (2016) CAMRip | P BOSS 746 MB
Фильмы 2016 года Долгая прогулка Билли Линна в перерыве футбольного матча / Billy Lynn's Long Halftime Walk (2016) НDRip | L BOSS 2.05 GB
Фильмы 2006-2008 года Донки Панч / Морская прогулка / Donkey punch (Оливер Блэкберн / Oliver Blackburn) [2008, Великобритания, триллер, DVDRip-AVC] MVO + Original Eng TorrentFilm 2.18 GB
Фильмы до 2000 года Младенец на прогулке, или ползком от гангстеров / Baby's Day Out (1994) WEB-DLRip ODESSA 2.66 GB
Фильмы (HD DVD, Blu-ray и BDRemux) Прогулка / The Walk (2015) BDRemux 1080p | Лицензия BOSS 25.57 GB
Показать сообщения:    

Текущее время: Сегодня 12:56

Часовой пояс: GMT



Вы не можете начинать темы
Вы не можете отвечать на сообщения
Вы не можете редактировать свои сообщения
Вы не можете удалять свои сообщения
Вы не можете голосовать в опросах
Вы не можете прикреплять файлы к сообщениям
Вы не можете скачивать файлы