Прогулка среди могил / A Walk Among the Tombstones (2014) BDRemux [1080p]

 
Автор Сообщение

oartemka178 ®

Пол:

Стаж: 4 года 10 месяцев

Сообщений: 12



Награды: Нет

Торрент-статистика

Создавать темы 03-Янв-2015 12:49

[Цитировать]

-Прогулка среди могил / A Walk Among the Tombstones - Год выпуска: 2014
Производство: США
Жанр: Детектив, Триллер, Криминал
Перевод: Многоголосый закадровый, профессиональный
Субтитры: Вшитые (отключаемые)
Язык субтитров: Английские, французские
Описание фильма:
Нью-Йорк охватывает волна странных и страшных убийств. Муж одной из жертв, наркобарон, нанимает бывшего полицейского, чтобы тот добрался до убийцы жены. Частный детектив Скаддер видит то, чего не замечает полиция, и проникает туда, куда копы боятся даже сунуть нос. Распутывая дьявольские преступления, он понимает, что люди боятся совсем не того.
Режиссер: Скотт Фрэнк
Продюсер: Тобин Армруст, Дэнни ДеВито, Брайан Оливер
Актеры: Лиам Нисон, Дэн Стивенс, Дэвид Харбор, Бойд Холбрук, Себастьян Роше, Астро, Уитни Эйбл, Стефани Андужар, Марина Скверсьяти, Марк Консуэлос

Дата мировой премьеры: 18 сентября 2014
Дата российской премьеры: 16 октября 2014, «Двадцатый Век Фокс СНГ», «A Company»
Продолжительность: 01:54:05
Качество видео: BDRemux
Видеокодек: MPEG-4 AVC/H.264
Битрейт видео: ~30.9 Мбит/с
Размер кадра: 1920x1080
Аудио 1: Русский АС3 2.0, 384 Кбит/сек
Аудио 2: Английский DTS, 6 ch, 1510 Кбит/с-

MediaInfo:

General
Complete name : E:\A.Walk.Among.the.Tombstones.2014.BDRemux.mkv
Format : Matroska
File size : 26.7 GiB
Duration : 1h 54mn
Overall bit rate : 33.5 Mbps
Movie name : A.Walk.Among.the.Tombstones.2014.P.BDRemux
Encoded date : UTC 2015-01-02 17:36:40
Writing application : mkvmerge v7.4.0 ('Circles') 64bit built on Dec 12 2014 12:19:56
Writing library : libebml v1.3.0 + libmatroska v1.4.1
Video
ID : 1
Format : AVC
Format/Info : Advanced Video Codec
Format profile : [url=mailto:High@L4.1]High@L4.1[/url]
Format settings, CABAC : Yes
Format settings, ReFrames : 4 frames
Muxing mode : Container profile=Unknown@4.1
Codec ID : V_MPEG4/ISO/AVC
Duration : 1h 53mn
Bit rate : 30.9 Mbps
Width : 1 920 pixels
Height : 1 080 pixels
Display aspect ratio : 16:9
Frame rate : 23.976 fps
Resolution : 8 bits
Colorimetry : 4:2:0
Scan type : Progressive
Bits/(Pixel*Frame) : 0.621
Stream size : 24.6 GiB (92%)
Title : A.Walk.Among.the.Tombstones.2014.P.BDRemux
Audio #1
ID : 2
Format : AC-3
Format/Info : Audio Coding 3
Codec ID : A_AC3
Duration : 1h 54mn
Bit rate mode : Constant
Bit rate : 384 Kbps
Channel(s) : 2 channels
Channel positions : L R
Sampling rate : 48.0 KHz
Stream size : 313 MiB (1%)
Language : Russian
Audio #2
ID : 3
Format : DTS
Format/Info : Digital Theater Systems
Codec ID : A_DTS
Duration : 1h 54mn
Bit rate mode : Constant
Bit rate : 1 510 Kbps
Channel(s) : 6 channels
Channel positions : Front: L C R, Surround: L R, LFE
Sampling rate : 48.0 KHz
Resolution : 24 bits
Stream size : 1.20 GiB (5%)
Text #1
ID : 4
Format : PGS
Codec ID : S_HDMV/PGS
Codec ID/Info : The same subtitle format used on BDs/HD-DVDs
Text #2
ID : 5
Format : PGS
Codec ID : S_HDMV/PGS
Codec ID/Info : The same subtitle format used on BDs/HD-DVDs
Language : French
Menu
00:00:00.000 : en:00:00:00.000
00:06:05.490 : en:00:06:05.490
00:12:23.576 : en:00:12:23.576
00:19:49.730 : en:00:19:49.730
00:25:04.378 : en:00:25:04.378
00:31:19.377 : en:00:31:19.377
00:37:34.127 : en:00:37:34.127
00:42:39.682 : en:00:42:39.682
00:48:59.061 : en:00:48:59.061
00:55:30.452 : en:00:55:30.452
01:02:32.540 : en:01:02:32.540
01:07:45.019 : en:01:07:45.019
01:12:31.305 : en:01:12:31.305
01:16:49.980 : en:01:16:49.980
01:24:01.036 : en:01:24:01.036
01:28:31.056 : en:01:28:31.056
01:35:01.321 : en:01:35:01.321
01:39:32.049 : en:01:39:32.049
01:44:18.711 : en:01:44:18.711
01:50:10.729 : en:01:50:10.729
-Скриншоты:
Благодарности, а также конструктивное обсуждение раздачи способствует ее долгожительству и вдохновляет автора на создание новых.
[Профиль] [ЛС]
Показать сообщения:    

Текущее время: Сегодня 14:33

Часовой пояс: GMT



Вы не можете начинать темы
Вы не можете отвечать на сообщения
Вы не можете редактировать свои сообщения
Вы не можете удалять свои сообщения
Вы не можете голосовать в опросах
Вы не можете прикреплять файлы к сообщениям
Вы не можете скачивать файлы