Прогулка среди могил / A Walk Among the Tombstones (2014) HDTVRip-AVC | L2

 
Автор Сообщение

sergej644 ®

Пол:

Стаж: 5 лет 9 месяцев

Сообщений: 6149

Откуда: Soviet Union



Награды: 9 (Подробнее)

Mega Seeder 3 (Количество: 1) Top Seeder 2 (Количество: 1) Mega Seeder 4 (Количество: 1)
Торрент-статистика

Создавать темы 10-Дек-2014 18:49

[Цитировать]

Информация о фильме
Название: Прогулка среди могил
Оригинальное название: A Walk Among the Tombstones
Год выхода: 2014
Жанр: детектив, триллер, криминал, драма
Режиссер: Скотт Фрэнк
В ролях: Лиам Нисон, Дэн Стивенс, Дэвид Харбор, Бойд Холбрук, Себастьян Роше, Астро, Уитни Эйбл, Стефани Андужар, Марина Скверсьяти, Марк Консуэлос
О фильме:
«Люди боятся не того, чего стоит бояться»
Нью-Йорк охватывает волна странных и страшных убийств. Муж одной из жертв, наркобарон, нанимает бывшего полицейского, чтобы тот добрался до убийцы жены. Частный детектив Скаддер видит то, чего не замечает полиция, и проникает туда, куда копы боятся даже сунуть нос. Распутывая дьявольские преступления, он понимает, что люди боятся совсем не того.

Страна: США
Студия: 1984 Private Defense Contractors, Double Feature Films, Manu Propria Entertainment…
Продолжительность: 01:48:48
Перевод: Любительский (двухголосый) - Сладкая парочка
Файл
Кодек: h.264 (MKV)
Качество: HDTVRip-AVC
Видео: AVC, 1024x576, 2 019 Kbps
Звук: Русский / Английский: AC-3, 2 ch, 320 Kbps
Субтитры: нет
Семпл

Скриншоты

MediaInfo

General
Unique ID : 199447379577117277823217902890159243770 (0x960C2B065AC8177686A20FC36E1501FA)
Complete name : H: A Walk Among the Tombstones (2014) HDTVRip-AVC.mkv
Format : Matroska
Format version : Version 4 / Version 2
File size : 2.06 GiB
Duration : 1h 48mn
Overall bit rate : 2 713 Kbps
Encoded date : UTC 2014-12-09 14:17:35
Writing application : mkvmerge v7.0.0 ('Where We Going') 64bit built on Jun 9 2014 15:16:27
Writing library : libebml v1.3.0 + libmatroska v1.4.1
DURATION : 01:48:48.000000000
NUMBER_OF_FRAMES : 204000
NUMBER_OF_BYTES : 261120000
_STATISTICS_WRITING_APP : mkvmerge v7.0.0 ('Where We Going') 64bit built on Jun 9 2014 15:16:27
_STATISTICS_WRITING_DATE_UTC : 2014-12-09 14:17:35
_STATISTICS_TAGS : BPS DURATION NUMBER_OF_FRAMES NUMBER_OF_BYTES
Video
ID : 1
Format : AVC
Format/Info : Advanced Video Codec
Format profile : Main@L4.1
Format settings, CABAC : Yes
Format settings, ReFrames : 4 frames
Codec ID : V_MPEG4/ISO/AVC
Duration : 1h 48mn
Bit rate : 2 019 Kbps
Width : 1 024 pixels
Height : 576 pixels
Display aspect ratio : 16:9
Frame rate mode : Constant
Frame rate : 25.000 fps
Color space : YUV
Chroma subsampling : 4:2:0
Bit depth : 8 bits
Scan type : Progressive
Bits/(Pixel*Frame) : 0.137
Stream size : 1.53 GiB (74%)
Language : English
Default : Yes
Forced : No
Audio #1
ID : 2
Format : AC-3
Format/Info : Audio Coding 3
Mode extension : CM (complete main)
Format settings, Endianness : Big
Codec ID : A_AC3
Duration : 1h 48mn
Bit rate mode : Constant
Bit rate : 320 Kbps
Channel(s) : 2 channels
Channel positions : Front: L R
Sampling rate : 48.0 KHz
Bit depth : 16 bits
Compression mode : Lossy
Stream size : 249 MiB (12%)
Language : Russian
Default : Yes
Forced : No
Audio #2
ID : 3
Format : AC-3
Format/Info : Audio Coding 3
Mode extension : CM (complete main)
Format settings, Endianness : Big
Codec ID : A_AC3
Duration : 1h 48mn
Bit rate mode : Constant
Bit rate : 320 Kbps
Channel(s) : 2 channels
Channel positions : Front: L R
Sampling rate : 48.0 KHz
Bit depth : 16 bits
Compression mode : Lossy
Stream size : 249 MiB (12%)
Language : English
Default : No
Forced : No
Релиз от:
[Профиль] [ЛС]
Кто просматривает тему:

Форум Тема Автор Размер
Доисторический мир BBC: Прогулки с динозаврами / Walking with Dinosaurs [серии 1-6 из 6] (Тим Хайнс, Джаспер Джеймс) [1999 г., Документальный, история, археология, динозавры, HDTVRip-AVC 720p] skorpionN 5.93 GB
Доисторический мир BBC: Прогулки с динозаврами: Баллада о большом Але (спецвыпуск) / Walking With Dinosaurs: The Ballad Of Big Al [серии 1-2 из 2] (Кейт Бартлетт, Майкл Олмерт) [2000 г., Документальный, и... skorpionN 1.97 GB
Доисторический мир BBC: Прогулки с чудовищами / Walking with Beasts [серии 1-6 из 6] (Джаспер Джеймс, Найджел Патерсон) [2001 г., Документальный, исследование, реконструкция, HDTVRip-AVC 720p] skorpionN 5.87 GB
Зарубежное кино (CAMRip, Telesynch, SCR) Долгая прогулка Билли Линна в перерыве футбольного матча / Billy Lynn's Long Halftime Walk (2016) CAMRip | P BOSS 746 MB
Фильмы 2016 года Долгая прогулка Билли Линна в перерыве футбольного матча / Billy Lynn's Long Halftime Walk (2016) НDRip | L BOSS 2.05 GB
Фильмы 2006-2008 года Донки Панч / Морская прогулка / Donkey punch (Оливер Блэкберн / Oliver Blackburn) [2008, Великобритания, триллер, DVDRip-AVC] MVO + Original Eng TorrentFilm 2.18 GB
Фильмы до 2000 года Младенец на прогулке, или ползком от гангстеров / Baby's Day Out (1994) WEB-DLRip ODESSA 2.66 GB
Фильмы (HD DVD, Blu-ray и BDRemux) Прогулка / The Walk (2015) BDRemux 1080p | Лицензия BOSS 25.57 GB
Показать сообщения:    

Текущее время: Сегодня 10:17

Часовой пояс: GMT



Вы не можете начинать темы
Вы не можете отвечать на сообщения
Вы не можете редактировать свои сообщения
Вы не можете удалять свои сообщения
Вы не можете голосовать в опросах
Вы не можете прикреплять файлы к сообщениям
Вы не можете скачивать файлы