Прогулка среди могил / A Walk Among the Tombstones (2014) WEBRip [H.264/720p-LQ]

 
Автор Сообщение

sergej644 ®

Пол:

Стаж: 4 года 11 месяцев

Сообщений: 6046

Откуда: Soviet Union



Награды: Нет

Торрент-статистика

Создавать темы 10-Окт-2014 20:11

[Цитировать]

-Прогулка среди могил / A Walk Among the Tombstones (2014) WEBRip [H.264/720p-LQ] -«Люди боятся не того,
чего стоит бояться»
--Год выпуска: 2014
Производство: США / Double Feature Films, Jersey Films
Жанр: Боевик, Триллер, Криминал
Перевод: Двуголосый закадровый, любительский [Сладкая парочка]
Субтитры: Вшитые не отключаемые
Язык субтитров: китайские
Режиссер: Скотт Фрэнк
Продюсер: Тобин Армруст, Дэнни ДеВито, Брайан Оливер
Актеры: Лиам Нисон, Морис Комт, Патрик МакДэйд, Лучиано Акуна мл., Ганс Марреро, Лаура Бирн, Дэвид Харбор, Адам Дэвид Томпсон, Ким Розен, Дэн Стивенс
Описание фильма:
Нью-Йорк охватывает волна странных и страшных убийств. Муж одной из жертв, наркобарон, нанимает бывшего полицейского, чтобы тот добрался до убийцы жены. Частный детектив Скаддер видит то, чего не замечает полиция, и проникает туда, куда копы боятся даже сунуть нос. Распутывая дьявольские преступления, он понимает, что люди боятся совсем не того.

Дата мировой премьеры: 18 сентября 2014
Дата российской премьеры: 16 октября 2014, «Двадцатый Век Фокс СНГ», «A Company»
Продолжительность: 01:53:47
Качество видео: WEBRip 720p-LQ
Видеокодек: MPEG-4 AVC/H.264
Битрейт видео: 4300 kb/s
Размер кадра: 1280x534
Аудио#1: 48 kHz, AC3, 2/0 320 kb/s (Русский)
Аудио#2: 48 kHz, AC3, 2/0 320 kb/s (Английский)
Сэмпл: Скачать

MediaInfo:

Общее
Полное имя                               : Progulka.Sredi.Mogil.2014.P.WEBRip.720p.nnm-club.mkv
Формат                                   : Matroska
Версия формата                           : Version 4 / Version 2
Размер файла                             : 2,66 Гбайт
Продолжительность                        : 1 ч. 53 м.
Общий поток                              : 3345 Кбит/сек
Дата кодирования                         : UTC 2014-10-06 19:01:46
Программа кодирования                    : mkvmerge v7.0.0 ('Where We Going') 64bit built on Jun  9 2014 15:16:27
Библиотека кодирования                   : libebml v1.3.0 + libmatroska v1.4.1
DURATION                                 : 01:53:47.584000000
NUMBER_OF_FRAMES                         : 213362
NUMBER_OF_BYTES                          : 273103360
_STATISTICS_WRITING_APP                  : mkvmerge v7.0.0 ('Where We Going') 64bit built on Jun  9 2014 15:16:27
_STATISTICS_WRITING_DATE_UTC             : 2014-10-06 19:01:46
_STATISTICS_TAGS                         : BPS DURATION NUMBER_OF_FRAMES NUMBER_OF_BYTES
Видео
Идентификатор                            : 1
Формат                                   : AVC
Формат/Информация                        : Advanced Video Codec
Профиль формата                          : [url=mailto:High@L4.1]High@L4.1[/url]
Параметр CABAC формата                   : Да
Параметр ReFrames формата                : 4 кадра
Идентификатор кодека                     : V_MPEG4/ISO/AVC
Продолжительность                        : 1 ч. 53 м.
Битрейт                                  : 2750 Кбит/сек
Ширина                                   : 1280 пикселей
Высота                                   : 534 пикселя
Соотношение сторон                       : 2,40:1
Режим частоты кадров                     : Постоянный
Частота кадров                           : 29,970 кадров/сек
Цветовое пространство                    : YUV
Субдискретизация насыщенности            : 4:2:0
Битовая глубина                          : 8 бит
Тип развёртки                            : Прогрессивная
Бит/(Пиксели*Кадры)                      : 0.134
Размер потока                            : 2,10 Гбайт (79%)
Библиотека кодирования                   : x264 core 130 r2274bm c832fe9
Настройки программы                      : cabac=1 / ref=3 / deblock=1:-1:-1 / analyse=0x3:0x113 / me=hex / subme=7 / psy=1 / psy_rd=1.00:0.15 / mixed_ref=1 / me_range=16 / chroma_me=1 / trellis=1 / 8x8dct=1 / cqm=0 / deadzone=21,11 / fast_pskip=1 / chroma_qp_offset=-3 / threads=12 / lookahead_threads=2 / sliced_threads=0 / nr=0 / decimate=1 / interlaced=0 / bluray_compat=0 / constrained_intra=0 / bframes=3 / b_pyramid=2 / b_adapt=1 / b_bias=0 / direct=1 / weightb=1 / open_gop=0 / weightp=2 / keyint=250 / keyint_min=25 / scenecut=40 / intra_refresh=0 / rc_lookahead=40 / rc=abr / mbtree=1 / bitrate=2750 / ratetol=1.0 / qcomp=0.60 / qpmin=0 / qpmax=69 / qpstep=4 / ip_ratio=1.40 / aq=1:1.00
Default                                  : Да
Forced                                   : Нет
Аудио #1
Идентификатор                            : 2
Формат                                   : AC-3
Формат/Информация                        : Audio Coding 3
Расширение режима                        : CM (complete main)
Параметр Endianness формата              : Big
Идентификатор кодека                     : A_AC3
Продолжительность                        : 1 ч. 53 м.
Вид битрейта                             : Постоянный
Битрейт                                  : 320 Кбит/сек
Каналы                                   : 2 канала
Расположение каналов                     : Front: L R
Частота                                  : 48,0 КГц
Битовая глубина                          : 16 бит
Метод сжатия                             : С потерями
Размер потока                            : 260 Мбайт (10%)
Default                                  : Да
Forced                                   : Нет
Аудио #2
Идентификатор                            : 3
Формат                                   : AC-3
Формат/Информация                        : Audio Coding 3
Расширение режима                        : CM (complete main)
Параметр Endianness формата              : Big
Идентификатор кодека                     : A_AC3
Продолжительность                        : 1 ч. 53 м.
Вид битрейта                             : Постоянный
Битрейт                                  : 320 Кбит/сек
Каналы                                   : 2 канала
Расположение каналов                     : Front: L R
Частота                                  : 48,0 КГц
Битовая глубина                          : 16 бит
Метод сжатия                             : С потерями
Размер потока                            : 260 Мбайт (10%)
Default                                  : Нет
Forced                                   : Нет
Скриншоты:

Время раздачи: 24/7 (до 10 скачавших)
[Профиль] [ЛС]
Показать сообщения:    

Текущее время: Сегодня 12:09

Часовой пояс: GMT



Вы не можете начинать темы
Вы не можете отвечать на сообщения
Вы не можете редактировать свои сообщения
Вы не можете удалять свои сообщения
Вы не можете голосовать в опросах
Вы не можете прикреплять файлы к сообщениям
Вы не можете скачивать файлы