Прогулка по Миссисипи / Mississippi Grind (2015) BDRip 1080p | L1

 
Автор Сообщение

BOSS ®

Пол:

Стаж: 2 года 1 месяц

Сообщений: 3738

Откуда: ODESSA



Награды: 20 (Подробнее)

Top Releaser 3 (Количество: 1) Mega Releaser 3 (Количество: 1) Top Releaser 2 (Количество: 1)
Торрент-статистика

Создавать темы 03-Дек-2015 06:04

[Цитировать]

Информация о фильме
Название: Прогулка по Миссисипи
Оригинальное название: Mississippi Grind
Год выхода: 2015
Жанр: Драма
Режиссер: Анна Боден, Райан Флек
В ролях: Бен Мендельсон, Райан Рейнольдс, Ивонн Ландри, Энтони Ховард, Джэйсон Уорнер Смит, Керри Кехилл, Джейн МакНейлл, П.Дж. Маршалл, Стефани Онор
О фильме:
Профессиональный карточный игрок Джерри с годами не молодеет. Ему хочется покоя, уюта, размеренной тихой жизни. Но спокойная старость стоит дорого, а денег Джерри за свою пеструю авантюрную жизнь не скопил. Как-то он знакомится с молодым обаятельным парнем по имени Кертис. Несмотря на значительную разницу в возрасте, у Кертиса и Джерри оказывается много общего. Молодой человек увлекается азартными играми, стремится стать профессионалом в этом деле, и уговаривает героя фильма поделиться с ним своим опытом и профессиональными приемами.
Старый игрок долго колеблется, но потом решает предпринять еще одну попытку заработать деньги игрой. С этой целью друзья отправляются в путешествие по Миссисипи – самой длинной реке в мире. Удивительная природа Южной Америки, потрясающей красоты пейзажи, расслабляющая атмосфера круизного судна и, конечно же, игра в карты. Меняются партнеры за карточным столом, возникают забавные и грустные ситуации, Кертис и Джерри составляют прекрасную пару игроков, понимающих друг друга с полуслова. Их дружеская привязанность становится все крепче. Но будет ли конец этого путешествия счастливым? И как совместить внезапно вспыхнувшую любовь с игрою?

Страна: США
Студия: Electric City Entertainment, Gowanus Projections
Продолжительность: 01:48:00
Перевод: Любительский, одноголосый (закадровый) [RAIM]
Файл
Кодек: h.264
Качество: BDRip 1080p
Видео: 1920x800 пикселей, 9 180 кбит/сек, 23.976 кадра(ов)/сек
Audio #1: Русский, AC-3, 2.0 канала(ов), 192 кбит/сек, 48.0 кГц
Audio #2: Английский, AC-3, 5.1 канала(ов), 640 кбит/сек, 48.0 кГц
Субтитры: Нет
Семпл

Скриншоты

Media Info

Video
ID : 1
Format : AVC
Format/Info : Advanced Video Codec
Format profile : High@L4.1
Format settings, CABAC : Yes
Format settings, ReFrames : 5 frames
Codec ID : V_MPEG4/ISO/AVC
Duration : 1h 48mn
Bit rate : 9 180 Kbps
Width : 1 920 pixels
Height : 800 pixels
Display aspect ratio : 2.40:1
Frame rate mode : Constant
Frame rate : 23.976 (24000/1001) fps
Color space : YUV
Chroma subsampling : 4:2:0
Bit depth : 8 bits
Scan type : Progressive
Language : English
Default : Yes
Forced : No
Audio #1
ID : 2
Format : AC-3
Format/Info : Audio Coding 3
Mode extension : CM (complete main)
Format settings, Endianness : Big
Codec ID : A_AC3
Duration : 1h 48mn
Bit rate mode : Constant
Bit rate : 192 Kbps
Channel(s) : 2 channels
Channel positions : Front: L R
Sampling rate : 48.0 KHz
Frame rate : 31.250 fps (1536 spf)
Compression mode : Lossy
Stream size : 149 MiB (2%)
Language : Russian
Default : Yes
Forced : No
Audio #2
ID : 3
Format : AC-3
Format/Info : Audio Coding 3
Mode extension : CM (complete main)
Format settings, Endianness : Big
Codec ID : A_AC3
Duration : 1h 48mn
Bit rate mode : Constant
Bit rate : 640 Kbps
Channel(s) : 6 channels
Channel positions : Front: L C R, Side: L R, LFE
Sampling rate : 48.0 KHz
Frame rate : 31.250 fps (1536 spf)
Compression mode : Lossy
Stream size : 498 MiB (6%)
Title : English AC3 640kbps
Language : English
Default : No
Forced : No
[Профиль] [ЛС]
Показать сообщения:    

Текущее время: Сегодня 02:17

Часовой пояс: GMT



Вы не можете начинать темы
Вы не можете отвечать на сообщения
Вы не можете редактировать свои сообщения
Вы не можете удалять свои сообщения
Вы не можете голосовать в опросах
Вы не можете прикреплять файлы к сообщениям
Вы не можете скачивать файлы