Прогулка по Миссисипи / Mississippi Grind (2015) WEBRip 1080p | Трейлер

 
Автор Сообщение

BOSS ®

Пол:

Стаж: 2 года 1 месяц

Сообщений: 3712

Откуда: ODESSA



Награды: 20 (Подробнее)

Top Seeder 3 (Количество: 1) Mega Seeder 5 (Количество: 1) Mega Seeder 2 (Количество: 1)
Торрент-статистика

Создавать темы 04-Авг-2015 11:53

[Цитировать]

Год выпуска: 2015
Производство: США
Жанр: драма
Перевод: дублированный
Режиссер: Анна Боден, Райан Флек
Продюсеры: Бен Нирн, Джэми Патрикоф, Том Райс
Актеры: Бен Мендельсон, Райан Рейнольдс, Анали Типтон, Сиенна Миллер, Робин Вайгерт, Элфри Вудард, Джастин Лебрун, Тери Уайбл, Стефани Онор, Керри Кехилл
Описание фильма:
Фильм расскажет о стареющем картежнике, который вместе с молодым коллегой путешествует по югу Америки.
Дата мировой премьеры: 24 января 2015
Дата российской премьеры: -

Продолжительность: 00:02:35
Качество видео: WEBRip 1080p
Видеокодек: MPEG-4 AVC/H.264
Битрейт видео: 1664 Кбит/сек
Размер кадра: 1920x800
Аудиокодек: AAC, 2 канала
Битрейт аудио: 128 Кбит/сек

MediaInfo:

Общее
Полное имя : Mississippi-Grind.mp4
Формат : MPEG-4
Профиль формата : Base Media
Идентификатор кодека : isom
Размер файла : 33,3 Мбайт
Продолжительность : 2 м. 35 с.
Режим общего битрейта : Переменный
Общий поток : 1795 Кбит/сек
Дата кодирования : UTC 2015-07-31 08:42:54
Дата пометки : UTC 2015-07-31 08:42:54
Программа кодирования : Lavf51.12.1
Видео
Идентификатор : 1
Формат : AVC
Формат/Информация : Advanced Video Codec
Профиль формата : Baseline@L4
Параметр CABAC формата : Нет
Параметр ReFrames формата : 1 кадр
Параметр GOP формата : M=1, N=12
Идентификатор кодека : avc1
Идентификатор кодека/Информация : Advanced Video Coding
Продолжительность : 2 м. 35 с.
Битрейт : 1664 Кбит/сек
Ширина : 1920 пикселей
Высота : 800 пикселей
Соотношение сторон : 2,40:1
Режим частоты кадров : Постоянный
Частота кадров : 23,976 кадра/сек
Цветовое пространство : YUV
Субдискретизация насыщенности : 4:2:0
Битовая глубина : 8 бит
Тип развёртки : Прогрессивная
Бит/(Пиксели*Кадры) : 0.045
Размер потока : 30,8 Мбайт (93%)
Дата кодирования : UTC 2015-07-31 08:42:54
Дата пометки : UTC 2015-07-31 08:42:54
Аудио
Идентификатор : 2
Формат : AAC
Формат/Информация : Advanced Audio Codec
Профиль формата : LC
Идентификатор кодека : 40
Продолжительность : 2 м. 35 с.
Вид битрейта : Переменный
Битрейт : 128 Кбит/сек
Каналы : 2 канала
Расположение каналов : Front: L R
Частота : 48,0 КГц
Метод сжатия : С потерями
Размер потока : 2,36 Мбайт (7%)
Дата кодирования : UTC 2015-07-31 08:42:54
Дата пометки : UTC 2015-07-31 08:42:54
Скриншоты - -

Скриншоты

[Профиль] [ЛС]
Показать сообщения:    

Текущее время: Сегодня 11:56

Часовой пояс: GMT



Вы не можете начинать темы
Вы не можете отвечать на сообщения
Вы не можете редактировать свои сообщения
Вы не можете удалять свои сообщения
Вы не можете голосовать в опросах
Вы не можете прикреплять файлы к сообщениям
Вы не можете скачивать файлы