Прогулка в 3Д / The Walk 3D (Роберт Земекис / Robert Zemeckis) [2015, Триллер, Драма, Приключения, Биография, BDrip-AVC] iTunes, Half OverUnder / Вертикальная анаморфная стереопара

 
Автор Сообщение

TorrentFilm ®

Пол:

Стаж: 2 года

Сообщений: 7741



Награды: Нет

Торрент-статистика

Создавать темы 17-Янв-2016 00:08

[Цитировать]

-Прогулка
The Walk
- Год выпуска: 2015
Страна: США (TriStar Pictures, LStar Capital, ImageMovers)
Жанр: Триллер, Драма, Приключения, Биография
Продолжительность: 02:03:11
Перевод: Профессиональный дублированный - iTunes
Режиссер: Роберт Земекис / Robert Zemeckis-Роли исполняли (дублировали):

Philippe Petit - Джозеф Гордон-Левитт (Илья Бледный)
Papa Rudy - Бен Кингсли (Никита Прозоровский)
Barry Greenhouse - Стив Валентайн (Михаил Шац)
Annie - Шарлотта Ле Бон (Мария Иващенко)
Jean-Pierre / J.P. - Джеймс Бэдж Дэйл
Albert - Бен Шварц
David - Бенедикт Сэмюэл
Officer Foley - Мизинга Мвинга
Officer Clemenza - Дэниэл Аррош
Officer Tessio - Джейсон Делайн
Officer Genco - Серджо Ди Зио
-Описание: Вы боитесь высоты? А можете представить себя идущим по натянутому канату на высоте более 400м без всякой страховки? Потоки ветра обдувают вас, а внизу — город и тысячи взволнованных взглядов, устремленных вверх.
История о том, как французский канатоходец Филипп Пети отважился совершить легендарный трюк — пройти без страховки по канату, натянутому между небоскребами в Нью-Йорке.

Знаетели вы, что...

  • Сцена с макетом башен близнецов является отсылкой к трилогии Роберта Земекиса «Назад в будущее».
  • Роберт Земекис загорелся мечтой сделать этот фильм ещё 10 лет назад, когда ему в руки попала детская книга «Человек, который шел между башнями» («The Man Who Walked Between The Towers»).
  • По словам режиссёра Роберта Земекиса, Джозеф Гордон-Левитт был единственным актёром, которого он когда-либо рассматривал на роль Филиппа Пети.
  • Джозеф Гордон-Левитт бегло говорит по-французски, но для фильма ему пришлось подтянуть его парижский акцент. Слушая Филиппа Пети, он также отточил франко-американский акцент канатоходца и перенял его манеру речи.
  • Во время съёмок фильма актеры каждое воскресенье собирались вместе и смотрели фильмы Роберта Земекиса.

    Осторожно, спойлер!

    В ходе восьмидневного семинара Филипп Пети лично обучал Джозефа Гордона-Левитта жонглированию и ходьбе по канату. К его окончанию актер мог сам идти по канату, расположенному на высоте 12 футов (3,6 м). Именно на такой высоте были отсняты сцены прогулки между зданиями Всемирного торгового центра.

Ошибки в фильме (Осторжно, спойлеры!)

  • Антенны на северной башне Всемирного торгового центра не было до 1978 года, а это четырьмя годами позже того времени, когда происходили описываемые в фильме события.
  • Когда два офицера пытаются схватить Филиппа за руку во время его «прогулки», в одном кадре они находятся буквально в шаге от края здания, в следующем кадре они оказываются гораздо дальше, чем были до этого.
  • 1 августа 1974 года был четверг, в фильме же говорится, что это была среда.
Премьера: 26 сентября 2015 (15 октября 2015)
Релиз на DVD (Россия): 14 января 2016
Бюджет: $35 000 000

. .
-Качество: BDRip (by Ash61)
Контейнер: MKV
Формат 3D: Half OverUnder / Вертикальная анаморфная стереопара
Порядок ракурсов: левый ракурс первый-Видео: AVC / 23,976 fps / 1920х1080p / ~7.0 Mbps
Аудио:
#1 - Русский / AC3 / 48 KHz / 5.1 ch / 384 Kbps (Дубляж - iTunes)
#2 - Английский / AC3 / 48 KHz / 5.1 ch / 640 Kbps (Original - BD 3D)
Субтитры (SRT):
Вшитые (softsub):
#1 - Русские Форсированные (включены по умолчанию)
#2 - Русские Полные
#3 - English Forced
#4 - English Full
Внешние (UTF-8):
#1 - Русские Форсированные (включены по умолчанию)

MediaInfo

General
Unique ID : 249537193226779728966707846308064091837 (0xBBBB1D8229BAE27FA1F2341439135EBD)
Complete name : E:\TheWalk(2015)3D-halfOU(Ash61)iTunes\TheWalk(2015)3D-halfOU(Ash61)iTunes.mkv
Format : Matroska
Format version : Version 2
File size : 7.09 GiB
Duration : 2h 3mn
Overall bit rate : 8 242 Kbps
Movie name : Прогулка / The Walk (2015) в 3Д
Encoded date : UTC 2015-12-21 17:06:22
Writing application : mkvmerge v5.8.0 ('No Sleep / Pillow') built on Sep 2 2012 15:37:04
Writing library : libebml v1.2.3 + libmatroska v1.3.0
Video
ID : 1
Format : AVC
Format/Info : Advanced Video Codec
Format profile : High@L4.1
Format settings, CABAC : Yes
Format settings, ReFrames : 4 frames
Codec ID : V_MPEG4/ISO/AVC
Duration : 2h 3mn
Bit rate : 7 054 Kbps
Width : 1 920 pixels
Height : 1 080 pixels
Display aspect ratio : 16:9
Frame rate mode : Constant
Frame rate : 23.976 fps
Color space : YUV
Chroma subsampling : 4:2:0
Bit depth : 8 bits
Scan type : Progressive
Bits/(Pixel*Frame) : 0.142
Stream size : 6.07 GiB (86%)
Title : BDRip by Ash61
Writing library : x264 core 146 r2538 121396c
Encoding settings : cabac=1 / ref=4 / deblock=1:-3:-3 / analyse=0x3:0x113 / me=umh / subme=10 / psy=1 / psy_rd=1.00:0.00 / mixed_ref=1 / me_range=32 / chroma_me=1 / trellis=2 / 8x8dct=1 / cqm=0 / deadzone=21,11 / fast_pskip=1 / chroma_qp_offset=-2 / threads=12 / lookahead_threads=2 / sliced_threads=0 / nr=0 / decimate=1 / interlaced=0 / bluray_compat=0 / constrained_intra=0 / bframes=9 / b_pyramid=2 / b_adapt=2 / b_bias=0 / direct=3 / weightb=1 / open_gop=0 / weightp=2 / keyint=250 / keyint_min=23 / scenecut=40 / intra_refresh=0 / rc_lookahead=60 / rc=crf / mbtree=1 / crf=16.0 / qcomp=0.70 / qpmin=0 / qpmax=69 / qpstep=4 / vbv_maxrate=40000 / vbv_bufsize=30000 / crf_max=0.0 / nal_hrd=none / filler=0 / frame-packing=4 / ip_ratio=1.40 / aq=1:0.70
Language : English
Default : Yes
Forced : No
Audio #1
ID : 2
Format : AC-3
Format/Info : Audio Coding 3
Mode extension : CM (complete main)
Format settings, Endianness : Big
Codec ID : A_AC3
Duration : 2h 3mn
Bit rate mode : Constant
Bit rate : 384 Kbps
Channel(s) : 6 channels
Channel positions : Front: L C R, Side: L R, LFE
Sampling rate : 48.0 KHz
Bit depth : 16 bits
Compression mode : Lossy
Stream size : 338 MiB (5%)
Title : Дубляж - iTunes
Language : Russian
Default : Yes
Forced : No
Audio #2
ID : 3
Format : AC-3
Format/Info : Audio Coding 3
Mode extension : CM (complete main)
Format settings, Endianness : Big
Codec ID : A_AC3
Duration : 2h 3mn
Bit rate mode : Constant
Bit rate : 640 Kbps
Channel(s) : 6 channels
Channel positions : Front: L C R, Side: L R, LFE
Sampling rate : 48.0 KHz
Bit depth : 16 bits
Compression mode : Lossy
Stream size : 564 MiB (8%)
Title : Original - BD 3D
Language : English
Default : No
Forced : No
Text #1
ID : 4
Format : UTF-8
Codec ID : S_TEXT/UTF8
Codec ID/Info : UTF-8 Plain Text
Title : Форсированные
Language : Russian
Default : Yes
Forced : No
Text #2
ID : 5
Format : UTF-8
Codec ID : S_TEXT/UTF8
Codec ID/Info : UTF-8 Plain Text
Title : Полные
Language : Russian
Default : No
Forced : No
Text #3
ID : 6
Format : UTF-8
Codec ID : S_TEXT/UTF8
Codec ID/Info : UTF-8 Plain Text
Title : Forced
Language : English
Default : No
Forced : No
Text #4
ID : 7
Format : UTF-8
Codec ID : S_TEXT/UTF8
Codec ID/Info : UTF-8 Plain Text
Title : Full
Language : English
Default : No
Forced : No
Menu
00:00:00.000 : :1
00:05:15.773 : :2
00:10:06.147 : :3
00:14:51.807 : :4
00:23:30.866 : :5
00:32:22.147 : :6
00:41:46.878 : :7
00:46:32.414 : :8
00:55:38.460 : :9
01:04:37.373 : :10
01:11:17.314 : :11
01:17:40.404 : :12
01:24:37.072 : :13
01:33:46.746 : :14
01:42:21.926 : :15
01:50:29.538 : :16

Для оценки 3Д - Анимированные скрины















[Профиль] [ЛС]
Показать сообщения:    

Текущее время: Сегодня 23:30

Часовой пояс: GMT



Вы не можете начинать темы
Вы не можете отвечать на сообщения
Вы не можете редактировать свои сообщения
Вы не можете удалять свои сообщения
Вы не можете голосовать в опросах
Вы не можете прикреплять файлы к сообщениям
Вы не можете скачивать файлы