Провода (Татьяна Мошкова, Марина Мошкова) [2013, мультфильм, DVDScreener]

 
Автор Сообщение

TorrentFilm ®

Пол:

Стаж: 2 года

Сообщений: 7741



Награды: Нет

Торрент-статистика

Создавать темы 24-Май-2015 00:04

[Цитировать]

Провода
Страна: РФ
Жанр: мультфильм
Продолжительность: 00:06:21
Год выпуска: 2013
Русские субтитры: нет
Режиссёр: Татьяна Мошкова, Марина Мошкова
Описание: История об одном особом слове, которое передвигаясь по городским проводам к пункту назначения меняет жизни нескольких людей.
Доп. информация: Фильм - участник конкурсной программы фестиваля Суздаль-2014.
Качество: DVDScreener
Формат: AVI
Видео: XVID, 720x416, 25fps, 1321kbps
Аудио: MPEG Layer 3, 48kHz, 2ch, 192kbps
Субтитры: отсутствуют

Подробные технические данные

Полное имя : Провода.aviФормат : AVIФормат/Информация : Audio Video InterleaveРазмер файла : 69,2 МбайтПродолжительность : 6 м. 21 с.Общий поток : 1522 Кбит/секПрограмма кодирования : VirtualDubMod 1.5.10.3 | www.virtualdub-fr.org || (build 2550/release)Библиотека кодирования : VirtualDubMod build 2550/release
ВидеоИдентификатор : 0Формат : MPEG-4 VisualПрофиль формата : Advanced Simple@L5Параметр BVOP формата : 1Параметр QPel формата : НетПараметр GMC формата : Без точки переходаПараметр матрицы формата : Default (H.263)Идентификатор кодека : DIVXИдентификатор кодека/Информация : Project MayoИдентификатор кодека/Подсказка : DivX 4Продолжительность : 6 м. 21 с.Битрейт : 1321 Кбит/секШирина : 720 пикселейВысота : 416 пикселейСоотношение сторон : 1,731Частота кадров : 23,976 кадра/секЦветовое пространство : YUVСубдискретизация насыщенности : 4:2:0Битовая глубина : 8 битТип развёртки : ПрогрессивнаяМетод сжатия : С потерямиБит/(Пиксели*Кадры) : 0.184Размер потока : 60,0 Мбайт (87%)Библиотека кодирования : XviD 1.2.1 (UTC 2008-12-04)
АудиоИдентификатор : 1Формат : MPEG AudioВерсия формата : Version 1Профиль формата : Layer 3Идентификатор кодека : 55Идентификатор кодека/Подсказка : MP3Продолжительность : 6 м. 21 с.Вид битрейта : ПостоянныйБитрейт : 192 Кбит/секКаналы : 2 каналаЧастота : 48,0 КГцМетод сжатия : С потерямиРазмер потока : 8,73 Мбайт (13%)Выравнивание : Соединение по промежуткамПродолжительность промежутка : 42 мс. (1,00 видеокадр)Время предзагрузки промежутка : 504 мс.Библиотека кодирования : LAME3.99rНастройки программы : -m s -V 4 -q 0 -lowpass 18.6 -b 192

Скриншоты



[Профиль] [ЛС]
Кто просматривает тему:

Форум Тема Автор Размер
Программы [Система] ES Проводник v.1.6.0.5 - 3.2.3 + ES Task Manager v.1.2.0 [Android 1.6+, RUS] painkiller 146 MB
Фантастика и фэнтези Андрей Левицкий - [Я - Сталкер] Тропами мутантов (муз. сопровождение) [Олег Шубин, 2014, Фантастика, 256 kbps] Garik014 876 MB
Фильмы (HD Rips | 720p, 1080p) Восставший из ада 7 - Армия мертвецов / Проводник смерти / Hellraiser: Deader (Рик Бота / Rick Bota) [2003, США, Румыния, ужасы, триллер, BDRip 720p] MVO + MVO (Элегия) + AVO (Гаврилов) + Original... reversefile 4.96 GB
Отечественные cериалы Провокатор [01-20 из 20] (2015) SATRip BOSS 11.65 GB
Фильмы (HD Rips | 720p, 1080p) Птичка на проводе / Bird on a Wire (1990) WEB-DL 1080p | P, P2, A Russian Mafia 5.76 GB
Интересно обо всем Сенсация или провокация? [01-22 из 22] (2012-2015) WEB-DLRip достали все 14.59 GB
Фильмы 2010 года ЭкстраМен / Сопровождение / The Extra Man (Шари Спрингер Берман / Shari Springer Berman, Роберт Пульчини / Robert Pulcini) [2010, США, Франция, драма, комедия, BDRip] MVO (R5) painkiller 1.46 GB
Фильмы 2010 года ЭкстраМен / Сопровождение / The Extra Man (Шари Спрингер Берман / Shari Springer Berman, Роберт Пульчини / Robert Pulcini) [2010, США, Франция, драма, комедия, BDRip] [Open Matte] MVO (По... painkiller 2.18 GB
Показать сообщения:    

Текущее время: Сегодня 08:27

Часовой пояс: GMT



Вы не можете начинать темы
Вы не можете отвечать на сообщения
Вы не можете редактировать свои сообщения
Вы не можете удалять свои сообщения
Вы не можете голосовать в опросах
Вы не можете прикреплять файлы к сообщениям
Вы не можете скачивать файлы