Проверь себя. Фильм 01 (Из 03) (National Geographic) [2011, Документальный, HDTV 1080i]

 
Автор Сообщение

TorrentFilm ®

Пол:

Стаж: 2 года

Сообщений: 7741



Награды: Нет

Торрент-статистика

Создавать темы 28-Янв-2015 00:00

[Цитировать]

Проверь себя / Испытайте свой мозг / Test Your Brain
Год выпуска: 2011
Страна: США
Студия: National Geographic
Жанр: Документальный
Продолжительность: 00:50:00 / Фильм
Перевод: Не требуется
Русские субтитры: нет
Описание: Почему, несмотря на миллионы лет эволюции, наши главные органы чувств – слух и зрение - легко обмануть? Над этими вопросами не одно столетие трудятся исследователи в области физиологии, неврологии и психологи, но наш мозг всё еще хранит множество тайн. "Испытайте свой мозг" – это интерактивная программа, состоящая из трех частей. Увлекательные эксперименты и тесты для зрителей дают возможность узнать о внутренних механизмах, обеспечивающих работу мозга, а самые выдающиеся исследователи в этой области объясняют, как и почему работают эти механизмы. Зрителям расскажут о том, как изображение на сетчатке глаза или звуковые колебания барабанной перепонки преобразуются в визуальную и слуховую картину окружающего их мира. Как сознанию человека удается вычленить из огромного количества поступающей информации только нужную ему в данный момент. Как с помощью несложных упражнений можно существенно улучшить память и способность к концентрации внимания. Три части программы о мозге человека посвящены трем темам: вниманию, памяти и чувственному восприятию.

Описание фильмов

Фильм 1-й. Обратите внимание!
Внимание – самый мощный инструмент человеческого мозга. Оно позволяет нам ориентироваться в окружающем мире и осознавать тысячу событий, происходящих с нами. Мы думаем, что внимательно следим за тем, что происходит вокруг. Но, как бы странно это ни звучало, это лишь иллюзия. В нашем мозге есть мощный фильтр, который позволяет нам не замечать даже серьезные изменения в окружающем пространстве. Обычно такое автоматическое отсеивание отвлекающих моментов сильно упрощает жизнь. Но бывают ситуации, когда необходим больший контроль над окружающим пространством. Дэвид Копперфилд и его коллеги-иллюзионисты рассказывают, каким образом мозг направляет наше внимание, определяя то, как мы видим и слышим мир, как взаимодействуем с ним. Зрителям будет предложено 11 игр и тестов, которые позволят им узнать, насколько хорошо они умеют концентрироваться. Выполняя указания ведущих, они научатся лучше управлять своим вниманием, а значит, и разумом.
Фильм 2-й. Память
Наша память не способна сохранить всю полученную мозгом информацию. Получение, сохранение и извлечение информации – очень сложный процесс. Начинается он в гиппокампе – отделе мозга, который обрабатывает сигналы, поступающие от органов чувств. А затем решает, какую информацию сохранить, а какую отбросить. Информация, которую необходимо сохранить, отправляется в специальный отдел мозга, чтобы потом к ней можно было вернуться. Все остальное стирается из памяти в течение примерно 20 секунд. Показания свидетелей очень важны для восстановления картины преступления и поиска преступников, но можно ли безоговорочно верить тому, что они вспоминают? Бывший детектив Грэг Уолш более 25 лет проводил расследования, опираясь на воспоминания очевидцев. Он прекрасно знает, насколько ненадeжна человеческая память. Уолш предлагает зрителям вместе со случайными прохожими принять участие в интерактивном расследовании преступления. Зрителям будет предложено также несколько заданий, которые помогут им проверить, насколько хорошо они запоминают имена, лица, числа и детали. А двукратный чемпион США по запоминанию Рон Уайт расскажет, с помощью каких упражнений можно улучшить свою память. И если после этого вы пройдeте заключительное испытание, значит вы тоже сможете стать чемпионом по запоминанию!
Фильм 3-й. Вы не поверите своим глазам
Авторы фильма приглашают зрителей в захватывающий мир оптических и слуховых иллюзий. Они расскажут о том, как мозг человека воспринимает окружающий мир. Попытаются обмануть ваши органы чувств, подвергнут вас целому ряду испытаний. Вы увидите то, чего на самом деле не существует. Услышите звуки, которые поставят ваш мозг в тупик. Испытаете ощущения, которые нельзя описать словами. Узнаете, как ослепший человек может видеть при помощи слуха и почему наш мозг может сопереживать даже неодушевленным предметам. Ученые продолжают находить все новые доказательства того, что мозг человека невероятно адаптивен. При помощи регулярных упражнений, которые демонстрируются в этом фильме, можно научиться видеть, слышать и чувствовать совсем по-другому.
Другие раздачи программы: http://torrentfilm.net/forum/tracker.php?nm=Test%20Your%20Brain
Доп. информация: Релиз -

Рип чистый. Без посторонних надписей.
Качество: HDTV 1080i
Контейнер: TS
Видео кодек: AVC
Аудио кодек: MP2
Видео: 1920x1080 (16:9) 25.000 fps ~ 9 228 Kbps, 0.178 bit/pixel
Аудио 1: AC3, 6 channels, 48000Hz, 384 Кбит/сек
Аудио 2: MPEG Audio 48000Hz stereo 192 Кбит/сек 2 channels

Скриншоты


Скринлист

MI

General
ID : 1 (0x1)
Complete name : H:\ВЫКЛАДКА\Проверь себя (National Geographic) (2011, Документальный, HDTV 1080i) (MYDIMKA)\Фильм 1-й - Обратите внимание.ts
Format : MPEG-TS
File size : 3.63 GiB
Duration : 50mn 11s
Overall bit rate mode : Variable
Overall bit rate : 10.4 Mbps
Video
ID : 1902 (0x76E)
Menu ID : 92 (0x5C)
Format : AVC
Format/Info : Advanced Video Codec
Format profile : High@L4.0
Format settings, CABAC : Yes
Format settings, ReFrames : 3 frames
Codec ID : 27
Duration : 50mn 11s
Bit rate : 9 228 Kbps
Width : 1 920 pixels
Height : 1 080 pixels
Display aspect ratio : 16:9
Frame rate : 25.000 fps
Standard : Component
Color space : YUV
Chroma subsampling : 4:2:0
Bit depth : 8 bits
Scan type : Interlaced
Scan order : Top Field First
Bits/(Pixel*Frame) : 0.178
Stream size : 3.24 GiB (89%)
Color primaries : BT.709
Transfer characteristics : BT.709
Matrix coefficients : BT.709
Audio #1
ID : 2902 (0xB56)
Menu ID : 92 (0x5C)
Format : AC-3
Format/Info : Audio Coding 3
Mode extension : CM (complete main)
Format settings, Endianness : Big
Codec ID : 6
Duration : 50mn 11s
Bit rate mode : Constant
Bit rate : 384 Kbps
Channel(s) : 6 channels
Channel positions : Front: L C R, Side: L R, LFE
Sampling rate : 48.0 KHz
Bit depth : 16 bits
Compression mode : Lossy
Stream size : 138 MiB (4%)
Language : Russian
Audio #2
ID : 2903 (0xB57)
Menu ID : 92 (0x5C)
Format : MPEG Audio
Format version : Version 1
Format profile : Layer 2
Codec ID : 3
Duration : 50mn 11s
Bit rate mode : Constant
Bit rate : 224 Kbps
Channel(s) : 2 channels
Sampling rate : 48.0 KHz
Compression mode : Lossy
Stream size : 80.4 MiB (2%)
Language : Russian
Text
ID : 2904 (0xB58)-888
Menu ID : 92 (0x5C)
Format : Teletext Subtitle
Language : Russian
Menu
ID : 902 (0x386)
Menu ID : 92 (0x5C)
Duration : 50mn 11s
List : 1902 (0x76E) (AVC) / 2902 (0xB56) (AC-3, Russian) / 2903 (0xB57) (MPEG Audio, Russian) / 2904 (0xB58) ()
Language : / Russian / Russian
[Профиль] [ЛС]
Показать сообщения:    

Текущее время: Сегодня 10:30

Часовой пояс: GMT



Вы не можете начинать темы
Вы не можете отвечать на сообщения
Вы не можете редактировать свои сообщения
Вы не можете удалять свои сообщения
Вы не можете голосовать в опросах
Вы не можете прикреплять файлы к сообщениям
Вы не можете скачивать файлы