Пробуждающаяся планета (Восходы) / Sunrise Earth (Дэвид Коновер / David Conover) [2004 - 2008, Документальный, релакс, Blu-ray disc (custom)] (7-11 диск из 17)

 
Автор Сообщение

TorrentFilm ®

Пол:

Стаж: 1 год 11 месяцев

Сообщений: 7741



Награды: Нет

Торрент-статистика

Создавать темы 27-Май-2015 00:00

[Цитировать]

Пробуждающаяся планета (Восходы) / Sunrise Earth Год выпуска: 2004 - 2008
Страна: США
Жанр: Документальный, релакс
Продолжительность: 13 эпизодов по ~ 00:54:00
Перевод: Авторский (одноголосый закадровый) (Ю.Сербин)
Русские субтитры: есть
Режиссер: Дэвид Коновер / David Conover
Описание: Есть в этом каждодневном действии какое-то таинство, каждый раз заставляющее человека замирать в немом восхищении от происходящего.
Встреча восхода солнца - древний обычай многих народов, символизирующий единение с природой, с главным божеством - Солнцем (Ра, Митрой, Ярилом и т.п.). Поэтому нет ничего удивительного в том, что появилась такая фантастическая серия, запечатлевшая восходы солнца в красивейших уголках планеты - от момента, когда первые лучи пробиваются из-за горизонта, возвещая о скором окончании ночи, до момента, когда жизнь окончательно пробуждается ото сна.
Об удивительных моментах рассвета рассказывают лишь звуки самой природы - крики птиц, шум прибоя, шелест утреннего бриза...
Дополнительная информация: За субтитры большое спасибо garageforsal.
Перевод и озвучивание серии "Секреты Солнца" осуществлено в рамках сервиса "Озвучивание". Спонсоры: levanevski, burdyuk, gelom, Loki1982, Turko, jezburg68, C_Vic, snauts, Воваростов и DeTorquemada. Для меценатов релиз золотом.
Тип релиза: Blu-ray disc (custom)
Контейнер: M2TS
Видео: Advanced Video Codec, 1920 х 1080 (16:9), 29,970 кадр/сек
Аудио: English, Audio Coding 3, 48,0 КГц, 2 канала(ов) {Natural sound}
Аудио 2: Russian DTS-HD MA 5.1 (Одноголосый) (Planet Awakening / Пробуждающаяся планета)
Аудио 3: Russian Dolby Digital 5.1 (Одноголосый) (Planet Awakening / Пробуждающаяся планета)
Субтитры: Русские

Релиз:
Список серий

7. Coastal Dawns

Список эпизодов:
1. Hawaii Daybreak (Рассвет над Гавайями)
2. Maine Coast Sunrise (Рассвет над побережьем штата Мэн)

8. Planet Awakening D1

Список эпизодов:
1. Tropical Palms (Тропические пальмы)
2. Sunrise Seal Colony (Утро семейства тюленей)

9. Planet Awakening D2

Список эпизодов:
3. Moose In The Morning (Рассвет на озере)
4. Scandinavian Waterfall (Скандинавский водопад)

10. Planet Awakening D3

Список эпизодов:
5. Edge Of The Atlantic (Край Атлантики)
6. Total Eclipse (Полное затмение)

11. Portraits of Our Planet

Список эпизодов:
1. Buddhists of Wat Svay (Буддистский храм Ват-Свай)
2. Everglades River of Grass (Эверглейдс - река травы)
3. New Zealand Frost (Иней Новой Зеландии)
4. Peruvian Rainforest Canopy (Под пологом тропического леса Перу)
5. Venetian Canals (Венецианские каналы)

MediaInfo

Общее
Полное имя : E:\torrent\Пробуждающаяся планета (Восходы). Sunrise Earth (7-11 disk)\Coastal Dawns
Формат : Blu-ray movie
Размер файла : 0,00 байт
Общее
Полное имя : E:\torrent\Пробуждающаяся планета (Восходы). Sunrise Earth (7-11 disk)\Planet Awakening D1\BDMV\index.bdmv
Формат : Blu-ray Index
Размер файла : 144 байт
Общее
Полное имя : E:\torrent\Пробуждающаяся планета (Восходы). Sunrise Earth (7-11 disk)\Planet Awakening D1\BDMV\MovieObject.bdmv
Формат : Blu-ray Movie object
Размер файла : 538 байт
Общее
Идентификатор : 0 (0x0)
Полное имя : E:\torrent\Пробуждающаяся планета (Восходы). Sunrise Earth (7-11 disk)\Planet Awakening D1\BDMV\STREAM\00000.m2ts
Формат : BDAV
Формат/Информация : Blu-ray Video
Размер файла : 1,53 Мбайт
Продолжительность : 6 с. 930 мс.
Режим общего битрейта : Переменный
Общий поток : 1847 Кбит/сек
Максимальный общий битрейт : 48,0 Мбит/сек
Видео
Идентификатор : 4113 (0x1011)
Идентификатор меню : 1 (0x1)
Формат : AVC
Формат/Информация : Advanced Video Codec
Профиль формата : High@L4.1
Параметр CABAC формата : Да
Параметр ReFrames формата : 4 кадра
Параметр GOP формата : M=3, N=18
Идентификатор кодека : 27
Продолжительность : 7 с. 7 мс.
Вид битрейта : Переменный
Битрейт : 1767 Кбит/сек
Максимальный битрейт : 40,0 Мбит/сек
Ширина : 1920 пикселей
Высота : 1080 пикселей
Соотношение сторон : 16:9
Частота кадров : 23,976 кадра/сек
Стандарт вещания : NTSC
Цветовое пространство : YUV
Субдискретизация насыщенности : 4:2:0
Битовая глубина : 8 бит
Тип развёртки : Прогрессивная
Бит/(Пиксели*Кадры) : 0.036
Размер потока : 1,48 Мбайт (97%)
Основные цвета : BT.709
Характеристики трансфера : BT.709
Коэффициенты матрицы : BT.709
Общее
Идентификатор : 0 (0x0)
Полное имя : E:\torrent\Пробуждающаяся планета (Восходы). Sunrise Earth (7-11 disk)\Planet Awakening D1\BDMV\STREAM\00001.m2ts
Формат : BDAV
Формат/Информация : Blu-ray Video
Размер файла : 318 Мбайт
Продолжительность : 2 м. 5 с.
Режим общего битрейта : Переменный
Общий поток : 21,2 Мбит/сек
Максимальный общий битрейт : 48,0 Мбит/сек
Видео
Идентификатор : 4113 (0x1011)
Идентификатор меню : 1 (0x1)
Формат : AVC
Формат/Информация : Advanced Video Codec
Профиль формата : High@L4.1
Параметр CABAC формата : Да
Параметр ReFrames формата : 4 кадра
Идентификатор кодека : 27
Продолжительность : 2 м. 5 с.
Вид битрейта : Переменный
Битрейт : 15,7 Мбит/сек
Максимальный битрейт : 30,0 Мбит/сек
Ширина : 1920 пикселей
Высота : 1080 пикселей
Соотношение сторон : 16:9
Частота кадров : 23,976 кадра/сек
Стандарт вещания : NTSC
Цветовое пространство : YUV
Субдискретизация насыщенности : 4:2:0
Битовая глубина : 8 бит
Тип развёртки : Прогрессивная
Бит/(Пиксели*Кадры) : 0.316
Размер потока : 236 Мбайт (74%)
Основные цвета : BT.709
Характеристики трансфера : BT.709
Коэффициенты матрицы : BT.709
Аудио #1
Идентификатор : 4352 (0x1100)
Идентификатор меню : 1 (0x1)
Формат : PCM
Параметр Endianness формата : Big
Параметр Sign формата : Signed
Режим смешивания : Blu-ray
Идентификатор кодека : 128
Продолжительность : 2 м. 5 с.
Вид битрейта : Постоянный
Битрейт : 1536 Кбит/сек
Каналы : 2 канала
Расположение каналов : Front: L R
Частота : 48,0 КГц
Битовая глубина : 16 бит
Размер потока : 23,0 Мбайт (7%)
Аудио #2
Идентификатор : 4353 (0x1101)
Идентификатор меню : 1 (0x1)
Формат : PCM
Параметр Endianness формата : Big
Параметр Sign формата : Signed
Режим смешивания : Blu-ray
Идентификатор кодека : 128
Продолжительность : 2 м. 5 с.
Вид битрейта : Постоянный
Битрейт : 1536 Кбит/сек
Каналы : 2 канала
Расположение каналов : Front: L R
Частота : 48,0 КГц
Битовая глубина : 16 бит
Размер потока : 23,0 Мбайт (7%)
Аудио #3
Идентификатор : 4354 (0x1102)
Идентификатор меню : 1 (0x1)
Формат : PCM
Параметр Endianness формата : Big
Параметр Sign формата : Signed
Режим смешивания : Blu-ray
Идентификатор кодека : 128
Продолжительность : 2 м. 5 с.
Вид битрейта : Постоянный
Битрейт : 1536 Кбит/сек
Каналы : 2 канала
Расположение каналов : Front: L R
Частота : 48,0 КГц
Битовая глубина : 16 бит
Размер потока : 23,0 Мбайт (7%)
Общее
Идентификатор : 0 (0x0)
Полное имя : E:\torrent\Пробуждающаяся планета (Восходы). Sunrise Earth (7-11 disk)\Planet Awakening D1\BDMV\STREAM\00002.m2ts
Формат : BDAV
Формат/Информация : Blu-ray Video
Размер файла : 1,76 Мбайт
Продолжительность : 4 с. 590 мс.
Режим общего битрейта : Переменный
Общий поток : 3181 Кбит/сек
Максимальный общий битрейт : 48,0 Мбит/сек
Меню
Идентификатор : 256 (0x100)
Идентификатор меню : 1 (0x1)
Список : 5120 (0x1400) ()
Общее
Идентификатор : 0 (0x0)
Полное имя : E:\torrent\Пробуждающаяся планета (Восходы). Sunrise Earth (7-11 disk)\Planet Awakening D1\BDMV\STREAM\00003.m2ts
Формат : BDAV
Формат/Информация : Blu-ray Video
Размер файла : 11,8 Гбайт
Продолжительность : 52 м.
Режим общего битрейта : Переменный
Общий поток : 32,0 Мбит/сек
Максимальный общий битрейт : 48,0 Мбит/сек
Видео
Идентификатор : 4113 (0x1011)
Идентификатор меню : 1 (0x1)
Формат : AVC
Формат/Информация : Advanced Video Codec
Профиль формата : High@L4.1
Параметр CABAC формата : Да
Параметр ReFrames формата : 4 кадра
Идентификатор кодека : 27
Продолжительность : 52 м.
Вид битрейта : Постоянный
Номинальный битрейт : 21,5 Мбит/сек
Ширина : 1920 пикселей
Высота : 1080 пикселей
Соотношение сторон : 16:9
Частота кадров : 23,976 кадра/сек
Стандарт вещания : NTSC
Цветовое пространство : YUV
Субдискретизация насыщенности : 4:2:0
Битовая глубина : 8 бит
Тип развёртки : Прогрессивная
Бит/(Пиксели*Кадры) : 0.432
Основные цвета : BT.709
Характеристики трансфера : BT.709
Коэффициенты матрицы : BT.709
Аудио #1
Идентификатор : 4352 (0x1100)
Идентификатор меню : 1 (0x1)
Формат : DTS
Формат/Информация : Digital Theater Systems
Профиль формата : MA / Core
Режим : 16
Параметр Endianness формата : Big
Режим смешивания : Stream extension
Идентификатор кодека : 134
Продолжительность : 52 м.
Вид битрейта : Переменный
Битрейт : Неизвестно / 768 Кбит/сек
Каналы : 6 каналов
Расположение каналов : Front: L C R, Side: L R, LFE
Частота : 48,0 КГц
Битовая глубина : 24 бит
Метод сжатия : Без потерь / Lossy
Аудио #2
Идентификатор : 4353 (0x1101)
Идентификатор меню : 1 (0x1)
Формат : DTS
Формат/Информация : Digital Theater Systems
Профиль формата : MA / Core
Режим : 16
Параметр Endianness формата : Big
Режим смешивания : Stream extension
Идентификатор кодека : 134
Продолжительность : 52 м.
Вид битрейта : Переменный
Битрейт : Неизвестно / 768 Кбит/сек
Каналы : 6 каналов
Расположение каналов : Front: L C R, Side: L R, LFE
Частота : 48,0 КГц
Битовая глубина : 24 бит
Метод сжатия : Без потерь / Lossy
Аудио #3
Идентификатор : 4354 (0x1102)
Идентификатор меню : 1 (0x1)
Формат : AC-3
Формат/Информация : Audio Coding 3
Расширение режима : CM (complete main)
Параметр Endianness формата : Big
Идентификатор кодека : 129
Продолжительность : 52 м.
Вид битрейта : Постоянный
Битрейт : 448 Кбит/сек
Каналы : 6 каналов
Расположение каналов : Front: L C R, Side: L R, LFE
Частота : 48,0 КГц
Битовая глубина : 16 бит
Метод сжатия : С потерями
Размер потока : 169 Мбайт (1%)
Текст
Идентификатор : 4608 (0x1200)
Идентификатор меню : 1 (0x1)
Формат : PGS
Идентификатор кодека : 144
Общее
Идентификатор : 0 (0x0)
Полное имя : E:\torrent\Пробуждающаяся планета (Восходы). Sunrise Earth (7-11 disk)\Planet Awakening D1\BDMV\STREAM\00004.m2ts
Формат : BDAV
Формат/Информация : Blu-ray Video
Размер файла : 11,1 Гбайт
Продолжительность : 51 м.
Режим общего битрейта : Переменный
Общий поток : 30,7 Мбит/сек
Максимальный общий битрейт : 48,0 Мбит/сек
Видео
Идентификатор : 4113 (0x1011)
Идентификатор меню : 1 (0x1)
Формат : AVC
Формат/Информация : Advanced Video Codec
Профиль формата : High@L4.1
Параметр CABAC формата : Да
Параметр ReFrames формата : 4 кадра
Идентификатор кодека : 27
Продолжительность : 51 м.
Вид битрейта : Постоянный
Номинальный битрейт : 21,5 Мбит/сек
Ширина : 1920 пикселей
Высота : 1080 пикселей
Соотношение сторон : 16:9
Частота кадров : 23,976 кадра/сек
Стандарт вещания : NTSC
Цветовое пространство : YUV
Субдискретизация насыщенности : 4:2:0
Битовая глубина : 8 бит
Тип развёртки : Прогрессивная
Бит/(Пиксели*Кадры) : 0.432
Основные цвета : BT.709
Характеристики трансфера : BT.709
Коэффициенты матрицы : BT.709
Аудио #1
Идентификатор : 4352 (0x1100)
Идентификатор меню : 1 (0x1)
Формат : DTS
Формат/Информация : Digital Theater Systems
Профиль формата : MA / Core
Режим : 16
Параметр Endianness формата : Big
Режим смешивания : Stream extension
Идентификатор кодека : 134
Продолжительность : 51 м.
Вид битрейта : Переменный
Битрейт : Неизвестно / 768 Кбит/сек
Каналы : 6 каналов
Расположение каналов : Front: L C R, Side: L R, LFE
Частота : 48,0 КГц
Битовая глубина : 24 бит
Метод сжатия : Без потерь / Lossy
Аудио #2
Идентификатор : 4353 (0x1101)
Идентификатор меню : 1 (0x1)
Формат : DTS
Формат/Информация : Digital Theater Systems
Профиль формата : MA / Core
Режим : 16
Параметр Endianness формата : Big
Режим смешивания : Stream extension
Идентификатор кодека : 134
Продолжительность : 51 м.
Вид битрейта : Переменный
Битрейт : Неизвестно / 768 Кбит/сек
Каналы : 6 каналов
Расположение каналов : Front: L C R, Side: L R, LFE
Частота : 48,0 КГц
Битовая глубина : 24 бит
Метод сжатия : Без потерь / Lossy
Аудио #3
Идентификатор : 4354 (0x1102)
Идентификатор меню : 1 (0x1)
Формат : AC-3
Формат/Информация : Audio Coding 3
Расширение режима : CM (complete main)
Параметр Endianness формата : Big
Идентификатор кодека : 129
Продолжительность : 51 м.
Вид битрейта : Постоянный
Битрейт : 448 Кбит/сек
Каналы : 6 каналов
Расположение каналов : Front: L C R, Side: L R, LFE
Частота : 48,0 КГц
Битовая глубина : 16 бит
Метод сжатия : С потерями
Размер потока : 165 Мбайт (1%)
Текст
Идентификатор : 4608 (0x1200)
Идентификатор меню : 1 (0x1)
Формат : PGS
Идентификатор кодека : 144
Общее
Идентификатор : 0 (0x0)
Полное имя : E:\torrent\Пробуждающаяся планета (Восходы). Sunrise Earth (7-11 disk)\Planet Awakening D1\BDMV\STREAM\00005.m2ts
Формат : BDAV
Формат/Информация : Blu-ray Video
Размер файла : 1,64 Мбайт
Продолжительность : 4 с. 590 мс.
Режим общего битрейта : Переменный
Общий поток : 2961 Кбит/сек
Максимальный общий битрейт : 48,0 Мбит/сек
Меню
Идентификатор : 256 (0x100)
Идентификатор меню : 1 (0x1)
Список : 5120 (0x1400) ()
Общее
Полное имя : E:\torrent\Пробуждающаяся планета (Восходы). Sunrise Earth (7-11 disk)\Planet Awakening D2\BDMV\index.bdmv
Формат : Blu-ray Index
Размер файла : 144 байт
Общее
Полное имя : E:\torrent\Пробуждающаяся планета (Восходы). Sunrise Earth (7-11 disk)\Planet Awakening D2\BDMV\MovieObject.bdmv
Формат : Blu-ray Movie object
Размер файла : 538 байт
Общее
Идентификатор : 0 (0x0)
Полное имя : E:\torrent\Пробуждающаяся планета (Восходы). Sunrise Earth (7-11 disk)\Planet Awakening D2\BDMV\STREAM\00000.m2ts
Формат : BDAV
Формат/Информация : Blu-ray Video
Размер файла : 1,53 Мбайт
Продолжительность : 6 с. 930 мс.
Режим общего битрейта : Переменный
Общий поток : 1847 Кбит/сек
Максимальный общий битрейт : 48,0 Мбит/сек
Видео
Идентификатор : 4113 (0x1011)
Идентификатор меню : 1 (0x1)
Формат : AVC
Формат/Информация : Advanced Video Codec
Профиль формата : High@L4.1
Параметр CABAC формата : Да
Параметр ReFrames формата : 4 кадра
Параметр GOP формата : M=3, N=18
Идентификатор кодека : 27
Продолжительность : 7 с. 7 мс.
Вид битрейта : Переменный
Битрейт : 1767 Кбит/сек
Максимальный битрейт : 40,0 Мбит/сек
Ширина : 1920 пикселей
Высота : 1080 пикселей
Соотношение сторон : 16:9
Частота кадров : 23,976 кадра/сек
Стандарт вещания : NTSC
Цветовое пространство : YUV
Субдискретизация насыщенности : 4:2:0
Битовая глубина : 8 бит
Тип развёртки : Прогрессивная
Бит/(Пиксели*Кадры) : 0.036
Размер потока : 1,48 Мбайт (97%)
Основные цвета : BT.709
Характеристики трансфера : BT.709
Коэффициенты матрицы : BT.709
Общее
Идентификатор : 0 (0x0)
Полное имя : E:\torrent\Пробуждающаяся планета (Восходы). Sunrise Earth (7-11 disk)\Planet Awakening D2\BDMV\STREAM\00001.m2ts
Формат : BDAV
Формат/Информация : Blu-ray Video
Размер файла : 318 Мбайт
Продолжительность : 2 м. 5 с.
Режим общего битрейта : Переменный
Общий поток : 21,2 Мбит/сек
Максимальный общий битрейт : 48,0 Мбит/сек
Видео
Идентификатор : 4113 (0x1011)
Идентификатор меню : 1 (0x1)
Формат : AVC
Формат/Информация : Advanced Video Codec
Профиль формата : High@L4.1
Параметр CABAC формата : Да
Параметр ReFrames формата : 4 кадра
Идентификатор кодека : 27
Продолжительность : 2 м. 5 с.
Вид битрейта : Переменный
Битрейт : 15,7 Мбит/сек
Максимальный битрейт : 30,0 Мбит/сек
Ширина : 1920 пикселей
Высота : 1080 пикселей
Соотношение сторон : 16:9
Частота кадров : 23,976 кадра/сек
Стандарт вещания : NTSC
Цветовое пространство : YUV
Субдискретизация насыщенности : 4:2:0
Битовая глубина : 8 бит
Тип развёртки : Прогрессивная
Бит/(Пиксели*Кадры) : 0.316
Размер потока : 236 Мбайт (74%)
Основные цвета : BT.709
Характеристики трансфера : BT.709
Коэффициенты матрицы : BT.709
Аудио #1
Идентификатор : 4352 (0x1100)
Идентификатор меню : 1 (0x1)
Формат : PCM
Параметр Endianness формата : Big
Параметр Sign формата : Signed
Режим смешивания : Blu-ray
Идентификатор кодека : 128
Продолжительность : 2 м. 5 с.
Вид битрейта : Постоянный
Битрейт : 1536 Кбит/сек
Каналы : 2 канала
Расположение каналов : Front: L R
Частота : 48,0 КГц
Битовая глубина : 16 бит
Размер потока : 23,0 Мбайт (7%)
Аудио #2
Идентификатор : 4353 (0x1101)
Идентификатор меню : 1 (0x1)
Формат : PCM
Параметр Endianness формата : Big
Параметр Sign формата : Signed
Режим смешивания : Blu-ray
Идентификатор кодека : 128
Продолжительность : 2 м. 5 с.
Вид битрейта : Постоянный
Битрейт : 1536 Кбит/сек
Каналы : 2 канала
Расположение каналов : Front: L R
Частота : 48,0 КГц
Битовая глубина : 16 бит
Размер потока : 23,0 Мбайт (7%)
Аудио #3
Идентификатор : 4354 (0x1102)
Идентификатор меню : 1 (0x1)
Формат : PCM
Параметр Endianness формата : Big
Параметр Sign формата : Signed
Режим смешивания : Blu-ray
Идентификатор кодека : 128
Продолжительность : 2 м. 5 с.
Вид битрейта : Постоянный
Битрейт : 1536 Кбит/сек
Каналы : 2 канала
Расположение каналов : Front: L R
Частота : 48,0 КГц
Битовая глубина : 16 бит
Размер потока : 23,0 Мбайт (7%)
Общее
Идентификатор : 0 (0x0)
Полное имя : E:\torrent\Пробуждающаяся планета (Восходы). Sunrise Earth (7-11 disk)\Planet Awakening D2\BDMV\STREAM\00002.m2ts
Формат : BDAV
Формат/Информация : Blu-ray Video
Размер файла : 1,71 Мбайт
Продолжительность : 4 с. 590 мс.
Режим общего битрейта : Переменный
Общий поток : 3106 Кбит/сек
Максимальный общий битрейт : 48,0 Мбит/сек
Меню
Идентификатор : 256 (0x100)
Идентификатор меню : 1 (0x1)
Список : 5120 (0x1400) ()
Общее
Идентификатор : 0 (0x0)
Полное имя : E:\torrent\Пробуждающаяся планета (Восходы). Sunrise Earth (7-11 disk)\Planet Awakening D2\BDMV\STREAM\00003.m2ts
Формат : BDAV
Формат/Информация : Blu-ray Video
Размер файла : 11,9 Гбайт
Продолжительность : 52 м.
Режим общего битрейта : Переменный
Общий поток : 32,4 Мбит/сек
Максимальный общий битрейт : 48,0 Мбит/сек
Видео
Идентификатор : 4113 (0x1011)
Идентификатор меню : 1 (0x1)
Формат : AVC
Формат/Информация : Advanced Video Codec
Профиль формата : High@L4.1
Параметр CABAC формата : Да
Параметр ReFrames формата : 4 кадра
Идентификатор кодека : 27
Продолжительность : 52 м.
Вид битрейта : Постоянный
Номинальный битрейт : 21,5 Мбит/сек
Ширина : 1920 пикселей
Высота : 1080 пикселей
Соотношение сторон : 16:9
Частота кадров : 23,976 кадра/сек
Стандарт вещания : NTSC
Цветовое пространство : YUV
Субдискретизация насыщенности : 4:2:0
Битовая глубина : 8 бит
Тип развёртки : Прогрессивная
Бит/(Пиксели*Кадры) : 0.432
Основные цвета : BT.709
Характеристики трансфера : BT.709
Коэффициенты матрицы : BT.709
Аудио #1
Идентификатор : 4352 (0x1100)
Идентификатор меню : 1 (0x1)
Формат : DTS
Формат/Информация : Digital Theater Systems
Профиль формата : MA / Core
Режим : 16
Параметр Endianness формата : Big
Режим смешивания : Stream extension
Идентификатор кодека : 134
Продолжительность : 52 м.
Вид битрейта : Переменный
Битрейт : Неизвестно / 768 Кбит/сек
Каналы : 6 каналов
Расположение каналов : Front: L C R, Side: L R, LFE
Частота : 48,0 КГц
Битовая глубина : 24 бит
Метод сжатия : Без потерь / Lossy
Аудио #2
Идентификатор : 4353 (0x1101)
Идентификатор меню : 1 (0x1)
Формат : DTS
Формат/Информация : Digital Theater Systems
Профиль формата : MA / Core
Режим : 16
Параметр Endianness формата : Big
Режим смешивания : Stream extension
Идентификатор кодека : 134
Продолжительность : 52 м.
Вид битрейта : Переменный
Битрейт : Неизвестно / 768 Кбит/сек
Каналы : 6 каналов
Расположение каналов : Front: L C R, Side: L R, LFE
Частота : 48,0 КГц
Битовая глубина : 24 бит
Метод сжатия : Без потерь / Lossy
Аудио #3
Идентификатор : 4354 (0x1102)
Идентификатор меню : 1 (0x1)
Формат : AC-3
Формат/Информация : Audio Coding 3
Расширение режима : CM (complete main)
Параметр Endianness формата : Big
Идентификатор кодека : 129
Продолжительность : 52 м.
Вид битрейта : Постоянный
Битрейт : 448 Кбит/сек
Каналы : 6 каналов
Расположение каналов : Front: L C R, Side: L R, LFE
Частота : 48,0 КГц
Битовая глубина : 16 бит
Метод сжатия : С потерями
Размер потока : 168 Мбайт (1%)
Текст
Идентификатор : 4608 (0x1200)
Идентификатор меню : 1 (0x1)
Формат : PGS
Идентификатор кодека : 144
Общее
Идентификатор : 0 (0x0)
Полное имя : E:\torrent\Пробуждающаяся планета (Восходы). Sunrise Earth (7-11 disk)\Planet Awakening D2\BDMV\STREAM\00004.m2ts
Формат : BDAV
Формат/Информация : Blu-ray Video
Размер файла : 10,9 Гбайт
Продолжительность : 52 м.
Режим общего битрейта : Переменный
Общий поток : 29,8 Мбит/сек
Максимальный общий битрейт : 48,0 Мбит/сек
Видео
Идентификатор : 4113 (0x1011)
Идентификатор меню : 1 (0x1)
Формат : AVC
Формат/Информация : Advanced Video Codec
Профиль формата : High@L4.1
Параметр CABAC формата : Да
Параметр ReFrames формата : 4 кадра
Идентификатор кодека : 27
Продолжительность : 52 м.
Вид битрейта : Постоянный
Номинальный битрейт : 19,7 Мбит/сек
Ширина : 1920 пикселей
Высота : 1080 пикселей
Соотношение сторон : 16:9
Частота кадров : 23,976 кадра/сек
Стандарт вещания : NTSC
Цветовое пространство : YUV
Субдискретизация насыщенности : 4:2:0
Битовая глубина : 8 бит
Тип развёртки : Прогрессивная
Бит/(Пиксели*Кадры) : 0.396
Основные цвета : BT.709
Характеристики трансфера : BT.709
Коэффициенты матрицы : BT.709
Аудио #1
Идентификатор : 4352 (0x1100)
Идентификатор меню : 1 (0x1)
Формат : DTS
Формат/Информация : Digital Theater Systems
Профиль формата : MA / Core
Режим : 16
Параметр Endianness формата : Big
Режим смешивания : Stream extension
Идентификатор кодека : 134
Продолжительность : 52 м.
Вид битрейта : Переменный
Битрейт : Неизвестно / 768 Кбит/сек
Каналы : 6 каналов
Расположение каналов : Front: L C R, Side: L R, LFE
Частота : 48,0 КГц
Битовая глубина : 24 бит
Метод сжатия : Без потерь / Lossy
Аудио #2
Идентификатор : 4353 (0x1101)
Идентификатор меню : 1 (0x1)
Формат : DTS
Формат/Информация : Digital Theater Systems
Профиль формата : MA / Core
Режим : 16
Параметр Endianness формата : Big
Режим смешивания : Stream extension
Идентификатор кодека : 134
Продолжительность : 52 м.
Вид битрейта : Переменный
Битрейт : Неизвестно / 768 Кбит/сек
Каналы : 6 каналов
Расположение каналов : Front: L C R, Side: L R, LFE
Частота : 48,0 КГц
Битовая глубина : 24 бит
Метод сжатия : Без потерь / Lossy
Аудио #3
Идентификатор : 4354 (0x1102)
Идентификатор меню : 1 (0x1)
Формат : AC-3
Формат/Информация : Audio Coding 3
Расширение режима : CM (complete main)
Параметр Endianness формата : Big
Идентификатор кодека : 129
Продолжительность : 52 м.
Вид битрейта : Постоянный
Битрейт : 448 Кбит/сек
Каналы : 6 каналов
Расположение каналов : Front: L C R, Side: L R, LFE
Частота : 48,0 КГц
Битовая глубина : 16 бит
Метод сжатия : С потерями
Размер потока : 168 Мбайт (2%)
Текст
Идентификатор : 4608 (0x1200)
Идентификатор меню : 1 (0x1)
Формат : PGS
Идентификатор кодека : 144
Общее
Идентификатор : 0 (0x0)
Полное имя : E:\torrent\Пробуждающаяся планета (Восходы). Sunrise Earth (7-11 disk)\Planet Awakening D2\BDMV\STREAM\00005.m2ts
Формат : BDAV
Формат/Информация : Blu-ray Video
Размер файла : 1,78 Мбайт
Продолжительность : 4 с. 500 мс.
Режим общего битрейта : Переменный
Общий поток : 3277 Кбит/сек
Максимальный общий битрейт : 48,0 Мбит/сек
Меню
Идентификатор : 256 (0x100)
Идентификатор меню : 1 (0x1)
Список : 5120 (0x1400) ()
Общее
Полное имя : E:\torrent\Пробуждающаяся планета (Восходы). Sunrise Earth (7-11 disk)\Planet Awakening D3\BDMV\index.bdmv
Формат : Blu-ray Index
Размер файла : 144 байт
Общее
Полное имя : E:\torrent\Пробуждающаяся планета (Восходы). Sunrise Earth (7-11 disk)\Planet Awakening D3\BDMV\MovieObject.bdmv
Формат : Blu-ray Movie object
Размер файла : 538 байт
Общее
Идентификатор : 0 (0x0)
Полное имя : E:\torrent\Пробуждающаяся планета (Восходы). Sunrise Earth (7-11 disk)\Planet Awakening D3\BDMV\STREAM\00000.m2ts
Формат : BDAV
Формат/Информация : Blu-ray Video
Размер файла : 1,53 Мбайт
Продолжительность : 6 с. 930 мс.
Режим общего битрейта : Переменный
Общий поток : 1847 Кбит/сек
Максимальный общий битрейт : 48,0 Мбит/сек
Видео
Идентификатор : 4113 (0x1011)
Идентификатор меню : 1 (0x1)
Формат : AVC
Формат/Информация : Advanced Video Codec
Профиль формата : High@L4.1
Параметр CABAC формата : Да
Параметр ReFrames формата : 4 кадра
Параметр GOP формата : M=3, N=18
Идентификатор кодека : 27
Продолжительность : 7 с. 7 мс.
Вид битрейта : Переменный
Битрейт : 1767 Кбит/сек
Максимальный битрейт : 40,0 Мбит/сек
Ширина : 1920 пикселей
Высота : 1080 пикселей
Соотношение сторон : 16:9
Частота кадров : 23,976 кадра/сек
Стандарт вещания : NTSC
Цветовое пространство : YUV
Субдискретизация насыщенности : 4:2:0
Битовая глубина : 8 бит
Тип развёртки : Прогрессивная
Бит/(Пиксели*Кадры) : 0.036
Размер потока : 1,48 Мбайт (97%)
Основные цвета : BT.709
Характеристики трансфера : BT.709
Коэффициенты матрицы : BT.709
Общее
Идентификатор : 0 (0x0)
Полное имя : E:\torrent\Пробуждающаяся планета (Восходы). Sunrise Earth (7-11 disk)\Planet Awakening D3\BDMV\STREAM\00001.m2ts
Формат : BDAV
Формат/Информация : Blu-ray Video
Размер файла : 318 Мбайт
Продолжительность : 2 м. 5 с.
Режим общего битрейта : Переменный
Общий поток : 21,2 Мбит/сек
Максимальный общий битрейт : 48,0 Мбит/сек
Видео
Идентификатор : 4113 (0x1011)
Идентификатор меню : 1 (0x1)
Формат : AVC
Формат/Информация : Advanced Video Codec
Профиль формата : High@L4.1
Параметр CABAC формата : Да
Параметр ReFrames формата : 4 кадра
Идентификатор кодека : 27
Продолжительность : 2 м. 5 с.
Вид битрейта : Переменный
Битрейт : 15,7 Мбит/сек
Максимальный битрейт : 30,0 Мбит/сек
Ширина : 1920 пикселей
Высота : 1080 пикселей
Соотношение сторон : 16:9
Частота кадров : 23,976 кадра/сек
Стандарт вещания : NTSC
Цветовое пространство : YUV
Субдискретизация насыщенности : 4:2:0
Битовая глубина : 8 бит
Тип развёртки : Прогрессивная
Бит/(Пиксели*Кадры) : 0.316
Размер потока : 236 Мбайт (74%)
Основные цвета : BT.709
Характеристики трансфера : BT.709
Коэффициенты матрицы : BT.709
Аудио #1
Идентификатор : 4352 (0x1100)
Идентификатор меню : 1 (0x1)
Формат : PCM
Параметр Endianness формата : Big
Параметр Sign формата : Signed
Режим смешивания : Blu-ray
Идентификатор кодека : 128
Продолжительность : 2 м. 5 с.
Вид битрейта : Постоянный
Битрейт : 1536 Кбит/сек
Каналы : 2 канала
Расположение каналов : Front: L R
Частота : 48,0 КГц
Битовая глубина : 16 бит
Размер потока : 23,0 Мбайт (7%)
Аудио #2
Идентификатор : 4353 (0x1101)
Идентификатор меню : 1 (0x1)
Формат : PCM
Параметр Endianness формата : Big
Параметр Sign формата : Signed
Режим смешивания : Blu-ray
Идентификатор кодека : 128
Продолжительность : 2 м. 5 с.
Вид битрейта : Постоянный
Битрейт : 1536 Кбит/сек
Каналы : 2 канала
Расположение каналов : Front: L R
Частота : 48,0 КГц
Битовая глубина : 16 бит
Размер потока : 23,0 Мбайт (7%)
Аудио #3
Идентификатор : 4354 (0x1102)
Идентификатор меню : 1 (0x1)
Формат : PCM
Параметр Endianness формата : Big
Параметр Sign формата : Signed
Режим смешивания : Blu-ray
Идентификатор кодека : 128
Продолжительность : 2 м. 5 с.
Вид битрейта : Постоянный
Битрейт : 1536 Кбит/сек
Каналы : 2 канала
Расположение каналов : Front: L R
Частота : 48,0 КГц
Битовая глубина : 16 бит
Размер потока : 23,0 Мбайт (7%)
Общее
Идентификатор : 0 (0x0)
Полное имя : E:\torrent\Пробуждающаяся планета (Восходы). Sunrise Earth (7-11 disk)\Planet Awakening D3\BDMV\STREAM\00002.m2ts
Формат : BDAV
Формат/Информация : Blu-ray Video
Размер файла : 1,70 Мбайт
Продолжительность : 4 с. 590 мс.
Режим общего битрейта : Переменный
Общий поток : 3073 Кбит/сек
Максимальный общий битрейт : 48,0 Мбит/сек
Меню
Идентификатор : 256 (0x100)
Идентификатор меню : 1 (0x1)
Список : 5120 (0x1400) ()
Общее
Идентификатор : 0 (0x0)
Полное имя : E:\torrent\Пробуждающаяся планета (Восходы). Sunrise Earth (7-11 disk)\Planet Awakening D3\BDMV\STREAM\00003.m2ts
Формат : BDAV
Формат/Информация : Blu-ray Video
Размер файла : 10,4 Гбайт
Продолжительность : 52 м.
Режим общего битрейта : Переменный
Общий поток : 28,4 Мбит/сек
Максимальный общий битрейт : 48,0 Мбит/сек
Видео
Идентификатор : 4113 (0x1011)
Идентификатор меню : 1 (0x1)
Формат : AVC
Формат/Информация : Advanced Video Codec
Профиль формата : High@L4.1
Параметр CABAC формата : Да
Параметр ReFrames формата : 4 кадра
Идентификатор кодека : 27
Продолжительность : 52 м.
Вид битрейта : Постоянный
Номинальный битрейт : 19,0 Мбит/сек
Ширина : 1920 пикселей
Высота : 1080 пикселей
Соотношение сторон : 16:9
Частота кадров : 23,976 кадра/сек
Стандарт вещания : NTSC
Цветовое пространство : YUV
Субдискретизация насыщенности : 4:2:0
Битовая глубина : 8 бит
Тип развёртки : Прогрессивная
Бит/(Пиксели*Кадры) : 0.382
Основные цвета : BT.709
Характеристики трансфера : BT.709
Коэффициенты матрицы : BT.709
Аудио #1
Идентификатор : 4352 (0x1100)
Идентификатор меню : 1 (0x1)
Формат : DTS
Формат/Информация : Digital Theater Systems
Профиль формата : MA / Core
Режим : 16
Параметр Endianness формата : Big
Режим смешивания : Stream extension
Идентификатор кодека : 134
Продолжительность : 52 м.
Вид битрейта : Переменный
Битрейт : Неизвестно / 768 Кбит/сек
Каналы : 6 каналов
Расположение каналов : Front: L C R, Side: L R, LFE
Частота : 48,0 КГц
Битовая глубина : 24 бит
Метод сжатия : Без потерь / Lossy
Аудио #2
Идентификатор : 4353 (0x1101)
Идентификатор меню : 1 (0x1)
Формат : DTS
Формат/Информация : Digital Theater Systems
Профиль формата : MA / Core
Режим : 16
Параметр Endianness формата : Big
Режим смешивания : Stream extension
Идентификатор кодека : 134
Продолжительность : 52 м.
Вид битрейта : Переменный
Битрейт : Неизвестно / 768 Кбит/сек
Каналы : 6 каналов
Расположение каналов : Front: L C R, Side: L R, LFE
Частота : 48,0 КГц
Битовая глубина : 24 бит
Метод сжатия : Без потерь / Lossy
Аудио #3
Идентификатор : 4354 (0x1102)
Идентификатор меню : 1 (0x1)
Формат : AC-3
Формат/Информация : Audio Coding 3
Расширение режима : CM (complete main)
Параметр Endianness формата : Big
Идентификатор кодека : 129
Продолжительность : 52 м.
Вид битрейта : Постоянный
Битрейт : 448 Кбит/сек
Каналы : 6 каналов
Расположение каналов : Front: L C R, Side: L R, LFE
Частота : 48,0 КГц
Битовая глубина : 16 бит
Метод сжатия : С потерями
Размер потока : 168 Мбайт (2%)
Текст
Идентификатор : 4608 (0x1200)
Идентификатор меню : 1 (0x1)
Формат : PGS
Идентификатор кодека : 144
Общее
Идентификатор : 0 (0x0)
Полное имя : E:\torrent\Пробуждающаяся планета (Восходы). Sunrise Earth (7-11 disk)\Planet Awakening D3\BDMV\STREAM\00004.m2ts
Формат : BDAV
Формат/Информация : Blu-ray Video
Размер файла : 10,8 Гбайт
Продолжительность : 52 м.
Режим общего битрейта : Переменный
Общий поток : 29,4 Мбит/сек
Максимальный общий битрейт : 48,0 Мбит/сек
Видео
Идентификатор : 4113 (0x1011)
Идентификатор меню : 1 (0x1)
Формат : AVC
Формат/Информация : Advanced Video Codec
Профиль формата : High@L4.1
Параметр CABAC формата : Да
Параметр ReFrames формата : 4 кадра
Идентификатор кодека : 27
Продолжительность : 52 м.
Вид битрейта : Постоянный
Номинальный битрейт : 19,0 Мбит/сек
Ширина : 1920 пикселей
Высота : 1080 пикселей
Соотношение сторон : 16:9
Частота кадров : 23,976 кадра/сек
Стандарт вещания : NTSC
Цветовое пространство : YUV
Субдискретизация насыщенности : 4:2:0
Битовая глубина : 8 бит
Тип развёртки : Прогрессивная
Бит/(Пиксели*Кадры) : 0.382
Основные цвета : BT.709
Характеристики трансфера : BT.709
Коэффициенты матрицы : BT.709
Аудио #1
Идентификатор : 4352 (0x1100)
Идентификатор меню : 1 (0x1)
Формат : DTS
Формат/Информация : Digital Theater Systems
Профиль формата : MA / Core
Режим : 16
Параметр Endianness формата : Big
Режим смешивания : Stream extension
Идентификатор кодека : 134
Продолжительность : 52 м.
Вид битрейта : Переменный
Битрейт : Неизвестно / 768 Кбит/сек
Каналы : 6 каналов
Расположение каналов : Front: L C R, Side: L R, LFE
Частота : 48,0 КГц
Битовая глубина : 24 бит
Метод сжатия : Без потерь / Lossy
Аудио #2
Идентификатор : 4353 (0x1101)
Идентификатор меню : 1 (0x1)
Формат : DTS
Формат/Информация : Digital Theater Systems
Профиль формата : MA / Core
Режим : 16
Параметр Endianness формата : Big
Режим смешивания : Stream extension
Идентификатор кодека : 134
Продолжительность : 52 м.
Вид битрейта : Переменный
Битрейт : Неизвестно / 768 Кбит/сек
Каналы : 6 каналов
Расположение каналов : Front: L C R, Side: L R, LFE
Частота : 48,0 КГц
Битовая глубина : 24 бит
Метод сжатия : Без потерь / Lossy
Аудио #3
Идентификатор : 4354 (0x1102)
Идентификатор меню : 1 (0x1)
Формат : AC-3
Формат/Информация : Audio Coding 3
Расширение режима : CM (complete main)
Параметр Endianness формата : Big
Идентификатор кодека : 129
Продолжительность : 52 м.
Вид битрейта : Постоянный
Битрейт : 448 Кбит/сек
Каналы : 6 каналов
Расположение каналов : Front: L C R, Side: L R, LFE
Частота : 48,0 КГц
Битовая глубина : 16 бит
Метод сжатия : С потерями
Размер потока : 169 Мбайт (2%)
Текст
Идентификатор : 4608 (0x1200)
Идентификатор меню : 1 (0x1)
Формат : PGS
Идентификатор кодека : 144
Общее
Идентификатор : 0 (0x0)
Полное имя : E:\torrent\Пробуждающаяся планета (Восходы). Sunrise Earth (7-11 disk)\Planet Awakening D3\BDMV\STREAM\00005.m2ts
Формат : BDAV
Формат/Информация : Blu-ray Video
Размер файла : 1,67 Мбайт
Продолжительность : 4 с. 590 мс.
Режим общего битрейта : Переменный
Общий поток : 3047 Кбит/сек
Максимальный общий битрейт : 48,0 Мбит/сек
Меню
Идентификатор : 256 (0x100)
Идентификатор меню : 1 (0x1)
Список : 5120 (0x1400) ()
Общее
Полное имя : E:\torrent\Пробуждающаяся планета (Восходы). Sunrise Earth (7-11 disk)\Portraits of Our Planet\BDMV\index.bdmv
Формат : Blu-ray Index
Размер файла : 216 байт
Общее
Полное имя : E:\torrent\Пробуждающаяся планета (Восходы). Sunrise Earth (7-11 disk)\Portraits of Our Planet\BDMV\MovieObject.bdmv
Формат : Blu-ray Movie object
Размер файла : 586 байт
Общее
Идентификатор : 0 (0x0)
Полное имя : E:\torrent\Пробуждающаяся планета (Восходы). Sunrise Earth (7-11 disk)\Portraits of Our Planet\BDMV\STREAM\00000.m2ts
Формат : BDAV
Формат/Информация : Blu-ray Video
Размер файла : 8,54 Мбайт
Продолжительность : 8 с. 10 мс.
Режим общего битрейта : Переменный
Общий поток : 8849 Кбит/сек
Максимальный общий битрейт : 48,0 Мбит/сек
Видео
Идентификатор : 4113 (0x1011)
Идентификатор меню : 1 (0x1)
Формат : MPEG Video
Версия формата : Version 2
Профиль формата : Main@High
Параметр BVOP формата : Да
Параметр матрицы формата : По умолчанию
Параметр GOP формата : M=3, N=18
Идентификатор кодека : 2
Продолжительность : 8 с. 8 мс.
Вид битрейта : Переменный
Битрейт : 8492 Кбит/сек
Максимальный битрейт : 40,0 Мбит/сек
Ширина : 1920 пикселей
Высота : 1080 пикселей
Соотношение сторон : 16:9
Частота кадров : 29,970 кадров/сек
Стандарт вещания : NTSC
Цветовое пространство : YUV
Субдискретизация насыщенности : 4:2:0
Битовая глубина : 8 бит
Тип развёртки : Чересстрочная
Порядок развёртки : Нижнее поле первое
Метод сжатия : С потерями
Бит/(Пиксели*Кадры) : 0.137
Размер потока : 8,11 Мбайт (95%)
Основные цвета : BT.709
Характеристики трансфера : BT.709
Коэффициенты матрицы : BT.709
Общее
Идентификатор : 0 (0x0)
Полное имя : E:\torrent\Пробуждающаяся планета (Восходы). Sunrise Earth (7-11 disk)\Portraits of Our Planet\BDMV\STREAM\00001.m2ts
Формат : BDAV
Формат/Информация : Blu-ray Video
Размер файла : 29,9 Мбайт
Продолжительность : 16 с.
Режим общего битрейта : Переменный
Общий поток : 15,1 Мбит/сек
Максимальный общий битрейт : 48,0 Мбит/сек
Видео
Идентификатор : 4113 (0x1011)
Идентификатор меню : 1 (0x1)
Формат : AVC
Формат/Информация : Advanced Video Codec
Профиль формата : High@L4.1
Параметр CABAC формата : Да
Параметр ReFrames формата : 4 кадра
Идентификатор кодека : 27
Продолжительность : 16 с.
Вид битрейта : Переменный
Битрейт : 14,5 Мбит/сек
Максимальный битрейт : 25,4 Мбит/сек
Ширина : 1920 пикселей
Высота : 1080 пикселей
Соотношение сторон : 16:9
Частота кадров : 29,970 кадров/сек
Стандарт вещания : NTSC
Цветовое пространство : YUV
Субдискретизация насыщенности : 4:2:0
Битовая глубина : 8 бит
Тип развёртки : MBAFF
Бит/(Пиксели*Кадры) : 0.233
Размер потока : 28,7 Мбайт (96%)
Основные цвета : BT.709
Характеристики трансфера : BT.709
Коэффициенты матрицы : BT.709
Общее
Идентификатор : 0 (0x0)
Полное имя : E:\torrent\Пробуждающаяся планета (Восходы). Sunrise Earth (7-11 disk)\Portraits of Our Planet\BDMV\STREAM\00002.m2ts
Формат : BDAV
Формат/Информация : Blu-ray Video
Размер файла : 42,4 Мбайт
Продолжительность : 17 с.
Режим общего битрейта : Переменный
Общий поток : 20,8 Мбит/сек
Максимальный общий битрейт : 48,0 Мбит/сек
Видео
Идентификатор : 4113 (0x1011)
Идентификатор меню : 1 (0x1)
Формат : AVC
Формат/Информация : Advanced Video Codec
Профиль формата : High@L4.1
Параметр CABAC формата : Да
Параметр ReFrames формата : 4 кадра
Идентификатор кодека : 27
Продолжительность : 17 с.
Вид битрейта : Переменный
Битрейт : 19,8 Мбит/сек
Максимальный битрейт : 35,0 Мбит/сек
Ширина : 1920 пикселей
Высота : 1080 пикселей
Соотношение сторон : 16:9
Частота кадров : 29,970 кадров/сек
Стандарт вещания : NTSC
Цветовое пространство : YUV
Субдискретизация насыщенности : 4:2:0
Битовая глубина : 8 бит
Тип развёртки : MBAFF
Бит/(Пиксели*Кадры) : 0.318
Размер потока : 40,1 Мбайт (95%)
Основные цвета : BT.709
Характеристики трансфера : BT.709
Коэффициенты матрицы : BT.709
Аудио
Идентификатор : 4352 (0x1100)
Идентификатор меню : 1 (0x1)
Формат : AC-3
Формат/Информация : Audio Coding 3
Расширение режима : CM (complete main)
Параметр Endianness формата : Big
Идентификатор кодека : 129
Продолжительность : 16 с.
Вид битрейта : Постоянный
Битрейт : 192 Кбит/сек
Каналы : 2 канала
Расположение каналов : Front: L R
Частота : 48,0 КГц
Битовая глубина : 16 бит
Метод сжатия : С потерями
Размер потока : 398 Кбайт (1%)
Общее
Идентификатор : 0 (0x0)
Полное имя : E:\torrent\Пробуждающаяся планета (Восходы). Sunrise Earth (7-11 disk)\Portraits of Our Planet\BDMV\STREAM\00003.m2ts
Формат : BDAV
Формат/Информация : Blu-ray Video
Размер файла : 458 Мбайт
Продолжительность : 3 м. 0 с.
Режим общего битрейта : Переменный
Общий поток : 21,3 Мбит/сек
Максимальный общий битрейт : 48,0 Мбит/сек
Видео
Идентификатор : 4113 (0x1011)
Идентификатор меню : 1 (0x1)
Формат : AVC
Формат/Информация : Advanced Video Codec
Профиль формата : High@L4.1
Параметр CABAC формата : Да
Параметр ReFrames формата : 4 кадра
Параметр GOP формата : M=3, N=24
Идентификатор кодека : 27
Продолжительность : 3 м. 0 с.
Вид битрейта : Переменный
Битрейт : 20,1 Мбит/сек
Максимальный битрейт : 35,0 Мбит/сек
Ширина : 1920 пикселей
Высота : 1080 пикселей
Соотношение сторон : 16:9
Частота кадров : 29,970 кадров/сек
Стандарт вещания : NTSC
Цветовое пространство : YUV
Субдискретизация насыщенности : 4:2:0
Битовая глубина : 8 бит
Тип развёртки : MBAFF
Бит/(Пиксели*Кадры) : 0.323
Размер потока : 431 Мбайт (94%)
Основные цвета : BT.709
Характеристики трансфера : BT.709
Коэффициенты матрицы : BT.709
Аудио
Идентификатор : 4352 (0x1100)
Идентификатор меню : 1 (0x1)
Формат : AC-3
Формат/Информация : Audio Coding 3
Расширение режима : CM (complete main)
Параметр Endianness формата : Big
Идентификатор кодека : 129
Продолжительность : 3 м. 0 с.
Вид битрейта : Постоянный
Битрейт : 384 Кбит/сек
Каналы : 6 каналов
Расположение каналов : Front: L C R, Side: L R, LFE
Частота : 48,0 КГц
Битовая глубина : 16 бит
Метод сжатия : С потерями
Размер потока : 8,24 Мбайт (2%)
Общее
Идентификатор : 0 (0x0)
Полное имя : E:\torrent\Пробуждающаяся планета (Восходы). Sunrise Earth (7-11 disk)\Portraits of Our Planet\BDMV\STREAM\00004.m2ts
Формат : BDAV
Формат/Информация : Blu-ray Video
Размер файла : 7,84 Гбайт
Продолжительность : 52 м.
Режим общего битрейта : Переменный
Общий поток : 21,4 Мбит/сек
Максимальный общий битрейт : 48,0 Мбит/сек
Видео
Идентификатор : 4113 (0x1011)
Идентификатор меню : 1 (0x1)
Формат : AVC
Формат/Информация : Advanced Video Codec
Профиль формата : High@L4.1
Параметр CABAC формата : Да
Параметр ReFrames формата : 4 кадра
Идентификатор кодека : 27
Продолжительность : 52 м.
Вид битрейта : Переменный
Битрейт : 20,1 Мбит/сек
Максимальный битрейт : 35,0 Мбит/сек
Ширина : 1920 пикселей
Высота : 1080 пикселей
Соотношение сторон : 16:9
Частота кадров : 29,970 кадров/сек
Стандарт вещания : NTSC
Цветовое пространство : YUV
Субдискретизация насыщенности : 4:2:0
Битовая глубина : 8 бит
Тип развёртки : MBAFF
Бит/(Пиксели*Кадры) : 0.324
Размер потока : 7,39 Гбайт (94%)
Основные цвета : BT.709
Характеристики трансфера : BT.709
Коэффициенты матрицы : BT.709
Аудио
Идентификатор : 4352 (0x1100)
Идентификатор меню : 1 (0x1)
Формат : AC-3
Формат/Информация : Audio Coding 3
Расширение режима : CM (complete main)
Параметр Endianness формата : Big
Идентификатор кодека : 129
Продолжительность : 52 м.
Вид битрейта : Постоянный
Битрейт : 384 Кбит/сек
Каналы : 6 каналов
Расположение каналов : Front: L C R, Side: L R, LFE
Частота : 48,0 КГц
Битовая глубина : 16 бит
Метод сжатия : С потерями
Размер потока : 144 Мбайт (2%)
Текст
Идентификатор : 4608 (0x1200)
Идентификатор меню : 1 (0x1)
Формат : PGS
Идентификатор кодека : 144
Общее
Идентификатор : 0 (0x0)
Полное имя : E:\torrent\Пробуждающаяся планета (Восходы). Sunrise Earth (7-11 disk)\Portraits of Our Planet\BDMV\STREAM\00005.m2ts
Формат : BDAV
Формат/Информация : Blu-ray Video
Размер файла : 7,85 Гбайт
Продолжительность : 52 м.
Режим общего битрейта : Переменный
Общий поток : 21,4 Мбит/сек
Максимальный общий битрейт : 48,0 Мбит/сек
Видео
Идентификатор : 4113 (0x1011)
Идентификатор меню : 1 (0x1)
Формат : AVC
Формат/Информация : Advanced Video Codec
Профиль формата : High@L4.1
Параметр CABAC формата : Да
Параметр ReFrames формата : 4 кадра
Идентификатор кодека : 27
Продолжительность : 52 м.
Вид битрейта : Переменный
Битрейт : 20,1 Мбит/сек
Максимальный битрейт : 35,0 Мбит/сек
Ширина : 1920 пикселей
Высота : 1080 пикселей
Соотношение сторон : 16:9
Частота кадров : 29,970 кадров/сек
Стандарт вещания : NTSC
Цветовое пространство : YUV
Субдискретизация насыщенности : 4:2:0
Битовая глубина : 8 бит
Тип развёртки : MBAFF
Бит/(Пиксели*Кадры) : 0.324
Размер потока : 7,39 Гбайт (94%)
Основные цвета : BT.709
Характеристики трансфера : BT.709
Коэффициенты матрицы : BT.709
Аудио
Идентификатор : 4352 (0x1100)
Идентификатор меню : 1 (0x1)
Формат : AC-3
Формат/Информация : Audio Coding 3
Расширение режима : CM (complete main)
Параметр Endianness формата : Big
Идентификатор кодека : 129
Продолжительность : 52 м.
Вид битрейта : Постоянный
Битрейт : 384 Кбит/сек
Каналы : 6 каналов
Расположение каналов : Front: L C R, Side: L R, LFE
Частота : 48,0 КГц
Битовая глубина : 16 бит
Метод сжатия : С потерями
Размер потока : 144 Мбайт (2%)
Текст
Идентификатор : 4608 (0x1200)
Идентификатор меню : 1 (0x1)
Формат : PGS
Идентификатор кодека : 144
Общее
Идентификатор : 0 (0x0)
Полное имя : E:\torrent\Пробуждающаяся планета (Восходы). Sunrise Earth (7-11 disk)\Portraits of Our Planet\BDMV\STREAM\00006.m2ts
Формат : BDAV
Формат/Информация : Blu-ray Video
Размер файла : 7,47 Гбайт
Продолжительность : 50 м.
Режим общего битрейта : Переменный
Общий поток : 21,4 Мбит/сек
Максимальный общий битрейт : 48,0 Мбит/сек
Видео
Идентификатор : 4113 (0x1011)
Идентификатор меню : 1 (0x1)
Формат : AVC
Формат/Информация : Advanced Video Codec
Профиль формата : High@L4.1
Параметр CABAC формата : Да
Параметр ReFrames формата : 4 кадра
Идентификатор кодека : 27
Продолжительность : 50 м.
Вид битрейта : Переменный
Битрейт : 20,1 Мбит/сек
Максимальный битрейт : 35,0 Мбит/сек
Ширина : 1920 пикселей
Высота : 1080 пикселей
Соотношение сторон : 16:9
Частота кадров : 29,970 кадров/сек
Стандарт вещания : NTSC
Цветовое пространство : YUV
Субдискретизация насыщенности : 4:2:0
Битовая глубина : 8 бит
Тип развёртки : MBAFF
Бит/(Пиксели*Кадры) : 0.324
Размер потока : 7,04 Гбайт (94%)
Основные цвета : BT.709
Характеристики трансфера : BT.709
Коэффициенты матрицы : BT.709
Аудио
Идентификатор : 4352 (0x1100)
Идентификатор меню : 1 (0x1)
Формат : AC-3
Формат/Информация : Audio Coding 3
Расширение режима : CM (complete main)
Параметр Endianness формата : Big
Идентификатор кодека : 129
Продолжительность : 50 м.
Вид битрейта : Постоянный
Битрейт : 384 Кбит/сек
Каналы : 6 каналов
Расположение каналов : Front: L C R, Side: L R, LFE
Частота : 48,0 КГц
Битовая глубина : 16 бит
Метод сжатия : С потерями
Размер потока : 137 Мбайт (2%)
Текст
Идентификатор : 4608 (0x1200)
Идентификатор меню : 1 (0x1)
Формат : PGS
Идентификатор кодека : 144
Общее
Идентификатор : 0 (0x0)
Полное имя : E:\torrent\Пробуждающаяся планета (Восходы). Sunrise Earth (7-11 disk)\Portraits of Our Planet\BDMV\STREAM\00007.m2ts
Формат : BDAV
Формат/Информация : Blu-ray Video
Размер файла : 7,47 Гбайт
Продолжительность : 50 м.
Режим общего битрейта : Переменный
Общий поток : 21,4 Мбит/сек
Максимальный общий битрейт : 48,0 Мбит/сек
Видео
Идентификатор : 4113 (0x1011)
Идентификатор меню : 1 (0x1)
Формат : AVC
Формат/Информация : Advanced Video Codec
Профиль формата : High@L4.1
Параметр CABAC формата : Да
Параметр ReFrames формата : 4 кадра
Идентификатор кодека : 27
Продолжительность : 50 м.
Вид битрейта : Переменный
Битрейт : 20,1 Мбит/сек
Максимальный битрейт : 35,0 Мбит/сек
Ширина : 1920 пикселей
Высота : 1080 пикселей
Соотношение сторон : 16:9
Частота кадров : 29,970 кадров/сек
Стандарт вещания : NTSC
Цветовое пространство : YUV
Субдискретизация насыщенности : 4:2:0
Битовая глубина : 8 бит
Тип развёртки : MBAFF
Бит/(Пиксели*Кадры) : 0.324
Размер потока : 7,04 Гбайт (94%)
Основные цвета : BT.709
Характеристики трансфера : BT.709
Коэффициенты матрицы : BT.709
Аудио
Идентификатор : 4352 (0x1100)
Идентификатор меню : 1 (0x1)
Формат : AC-3
Формат/Информация : Audio Coding 3
Расширение режима : CM (complete main)
Параметр Endianness формата : Big
Идентификатор кодека : 129
Продолжительность : 49 м.
Вид битрейта : Постоянный
Битрейт : 384 Кбит/сек
Каналы : 6 каналов
Расположение каналов : Front: L C R, Side: L R, LFE
Частота : 48,0 КГц
Битовая глубина : 16 бит
Метод сжатия : С потерями
Размер потока : 137 Мбайт (2%)
Текст
Идентификатор : 4608 (0x1200)
Идентификатор меню : 1 (0x1)
Формат : PGS
Идентификатор кодека : 144
Общее
Идентификатор : 0 (0x0)
Полное имя : E:\torrent\Пробуждающаяся планета (Восходы). Sunrise Earth (7-11 disk)\Portraits of Our Planet\BDMV\STREAM\00008.m2ts
Формат : BDAV
Формат/Информация : Blu-ray Video
Размер файла : 7,47 Гбайт
Продолжительность : 50 м.
Режим общего битрейта : Переменный
Общий поток : 21,4 Мбит/сек
Максимальный общий битрейт : 48,0 Мбит/сек
Видео
Идентификатор : 4113 (0x1011)
Идентификатор меню : 1 (0x1)
Формат : AVC
Формат/Информация : Advanced Video Codec
Профиль формата : High@L4.1
Параметр CABAC формата : Да
Параметр ReFrames формата : 4 кадра
Идентификатор кодека : 27
Продолжительность : 50 м.
Вид битрейта : Переменный
Битрейт : 20,1 Мбит/сек
Максимальный битрейт : 35,0 Мбит/сек
Ширина : 1920 пикселей
Высота : 1080 пикселей
Соотношение сторон : 16:9
Частота кадров : 29,970 кадров/сек
Стандарт вещания : NTSC
Цветовое пространство : YUV
Субдискретизация насыщенности : 4:2:0
Битовая глубина : 8 бит
Тип развёртки : MBAFF
Бит/(Пиксели*Кадры) : 0.324
Размер потока : 7,04 Гбайт (94%)
Основные цвета : BT.709
Характеристики трансфера : BT.709
Коэффициенты матрицы : BT.709
Аудио
Идентификатор : 4352 (0x1100)
Идентификатор меню : 1 (0x1)
Формат : AC-3
Формат/Информация : Audio Coding 3
Расширение режима : CM (complete main)
Параметр Endianness формата : Big
Идентификатор кодека : 129
Продолжительность : 50 м.
Вид битрейта : Постоянный
Битрейт : 384 Кбит/сек
Каналы : 6 каналов
Расположение каналов : Front: L C R, Side: L R, LFE
Частота : 48,0 КГц
Битовая глубина : 16 бит
Метод сжатия : С потерями
Размер потока : 137 Мбайт (2%)
Текст
Идентификатор : 4608 (0x1200)
Идентификатор меню : 1 (0x1)
Формат : PGS
Идентификатор кодека : 144
Общее
Идентификатор : 0 (0x0)
Полное имя : E:\torrent\Пробуждающаяся планета (Восходы). Sunrise Earth (7-11 disk)\Portraits of Our Planet\BDMV\STREAM\00009.m2ts
Формат : BDAV
Формат/Информация : Blu-ray Video
Размер файла : 6,69 Гбайт
Продолжительность : 48 м.
Режим общего битрейта : Переменный
Общий поток : 19,9 Мбит/сек
Максимальный общий битрейт : 48,0 Мбит/сек
Видео
Идентификатор : 4113 (0x1011)
Идентификатор меню : 1 (0x1)
Формат : AVC
Формат/Информация : Advanced Video Codec
Профиль формата : High@L4.1
Параметр CABAC формата : Да
Параметр ReFrames формата : 4 кадра
Идентификатор кодека : 27
Продолжительность : 48 м.
Вид битрейта : Переменный
Битрейт : 18,8 Мбит/сек
Максимальный битрейт : 35,0 Мбит/сек
Ширина : 1920 пикселей
Высота : 1080 пикселей
Соотношение сторон : 16:9
Частота кадров : 29,970 кадров/сек
Стандарт вещания : NTSC
Цветовое пространство : YUV
Субдискретизация насыщенности : 4:2:0
Битовая глубина : 8 бит
Тип развёртки : MBAFF
Бит/(Пиксели*Кадры) : 0.302
Размер потока : 6,29 Гбайт (94%)
Основные цвета : BT.709
Характеристики трансфера : BT.709
Коэффициенты матрицы : BT.709
Аудио
Идентификатор : 4352 (0x1100)
Идентификатор меню : 1 (0x1)
Формат : AC-3
Формат/Информация : Audio Coding 3
Расширение режима : CM (complete main)
Параметр Endianness формата : Big
Идентификатор кодека : 129
Продолжительность : 48 м.
Вид битрейта : Постоянный
Битрейт : 384 Кбит/сек
Каналы : 6 каналов
Расположение каналов : Front: L C R, Side: L R, LFE
Частота : 48,0 КГц
Битовая глубина : 16 бит
Метод сжатия : С потерями
Размер потока : 132 Мбайт (2%)
Текст
Идентификатор : 4608 (0x1200)
Идентификатор меню : 1 (0x1)
Формат : PGS
Идентификатор кодека : 144
Общее
Идентификатор : 0 (0x0)
Полное имя : E:\torrent\Пробуждающаяся планета (Восходы). Sunrise Earth (7-11 disk)\Portraits of Our Planet\BDMV\STREAM\00010.m2ts
Формат : BDAV
Формат/Информация : Blu-ray Video
Размер файла : 210 Кбайт
Продолжительность : 180 мс.
Общий поток : 6266 Кбит/сек
Максимальный общий битрейт : 48,0 Мбит/сек
Меню
Идентификатор : 256 (0x100)
Идентификатор меню : 1 (0x1)
Список : 5120 (0x1400) ()
Общее
Идентификатор : 0 (0x0)
Полное имя : E:\torrent\Пробуждающаяся планета (Восходы). Sunrise Earth (7-11 disk)\Portraits of Our Planet\BDMV\STREAM\00011.m2ts
Формат : BDAV
Формат/Информация : Blu-ray Video
Размер файла : 186 Кбайт
Продолжительность : 180 мс.
Общий поток : 7026 Кбит/сек
Максимальный общий битрейт : 48,0 Мбит/сек
Меню
Идентификатор : 256 (0x100)
Идентификатор меню : 1 (0x1)
Список : 5120 (0x1400) ()
Общее
Идентификатор : 0 (0x0)
Полное имя : E:\torrent\Пробуждающаяся планета (Восходы). Sunrise Earth (7-11 disk)\Portraits of Our Planet\BDMV\STREAM\00012.m2ts
Формат : BDAV
Формат/Информация : Blu-ray Video
Размер файла : 186 Кбайт
Продолжительность : 180 мс.
Общий поток : 6864 Кбит/сек
Максимальный общий битрейт : 48,0 Мбит/сек
Меню
Идентификатор : 256 (0x100)
Идентификатор меню : 1 (0x1)
Список : 5120 (0x1400) ()
Общее
Идентификатор : 0 (0x0)
Полное имя : E:\torrent\Пробуждающаяся планета (Восходы). Sunrise Earth (7-11 disk)\Portraits of Our Planet\BDMV\STREAM\00013.m2ts
Формат : BDAV
Формат/Информация : Blu-ray Video
Размер файла : 180 Кбайт
Продолжительность : 180 мс.
Общий поток : 7001 Кбит/сек
Максимальный общий битрейт : 48,0 Мбит/сек
Меню
Идентификатор : 256 (0x100)
Идентификатор меню : 1 (0x1)
Список : 5120 (0x1400) ()
Общее
Идентификатор : 0 (0x0)
Полное имя : E:\torrent\Пробуждающаяся планета (Восходы). Sunrise Earth (7-11 disk)\Portraits of Our Planet\BDMV\STREAM\00014.m2ts
Формат : BDAV
Формат/Информация : Blu-ray Video
Размер файла : 186 Кбайт
Продолжительность : 180 мс.
Общий поток : 6838 Кбит/сек
Максимальный общий битрейт : 48,0 Мбит/сек
Меню
Идентификатор : 256 (0x100)
Идентификатор меню : 1 (0x1)
Список : 5120 (0x1400) ()
Общее
Идентификатор : 0 (0x0)
Полное имя : E:\torrent\Пробуждающаяся планета (Восходы). Sunrise Earth (7-11 disk)\Portraits of Our Planet\BDMV\STREAM\00015.m2ts
Формат : BDAV
Формат/Информация : Blu-ray Video
Размер файла : 186 Кбайт
Продолжительность : 180 мс.
Общий поток : 6830 Кбит/сек
Максимальный общий битрейт : 48,0 Мбит/сек
Меню
Идентификатор : 256 (0x100)
Идентификатор меню : 1 (0x1)
Список : 5120 (0x1400) ()
Общее
Идентификатор : 0 (0x0)
Полное имя : E:\torrent\Пробуждающаяся планета (Восходы). Sunrise Earth (7-11 disk)\Portraits of Our Planet\BDMV\STREAM\00016.m2ts
Формат : BDAV
Формат/Информация : Blu-ray Video
Размер файла : 180 Кбайт
Продолжительность : 180 мс.
Общий поток : 6932 Кбит/сек
Максимальный общий битрейт : 48,0 Мбит/сек
Меню
Идентификатор : 256 (0x100)
Идентификатор меню : 1 (0x1)
Список : 5120 (0x1400) ()

Скриншоты

1. Пробуждающаяся планета (Восходы) / Sunrise Earth (1-6 диск из 17)3. Пробуждающаяся планета (Восходы) / Sunrise Earth (12-17 диск из 17)
[Профиль] [ЛС]
Кто просматривает тему:

Форум Тема Автор Размер
Other genres (Pop, Dance, Rock, Mix...) VA - Пробуждающая подборка от Зайцев.нет - 2014, MP3, 256 kbps Magnat 624 MB
Viasat Nature Viasat Nature: Пробуждение дикой природы - европейская весна / Wild & Wide Awake - Spring Across Europe [сезон 1 серии 1-2 из 2] (Thomas Willers) [2015 г., Документальный, путешествия, флора, фауна,... skorpionN 3.59 GB
Viasat Nature Viasat Nature: Пробуждение дикой природы - европейская весна / Wild & Wide Awake - Spring [сезон 1 серии 1-2 из 2] (Thomas Willers) [2015 г., Документальный, путешествия, флора, фауна, SATRip] skorpionN 1.4 GB
Фильмы 2016 года Акулий торнадо 4: Пробуждение / Sharknado 4: The 4th Awakens (2016) WEBRip | L1 достали все 1.46 GB
Зарубежные Другой мир: Пробуждение в 3Д / Underworld: Awakening 3D (Монс Морлинд / Mans Marlind, Бьёрн Стейн / Björn Stein) [2012, ужасы, фэнтези, боевик, Blu-ray Remux 1080p] BD3D TorrentFilm 25.37 GB
Фильмы (HD DVD, Blu-ray и BDRemux) Звёздные войны: Пробуждение силы / Star Wars: Episode VII - The Force Awakens (2015) BDRemux 1080p | iTunes Russian Mafia 34.24 GB
Фильмы (HD DVD, Blu-ray и BDRemux) Звёздные войны: Пробуждение силы / Star Wars: Episode VII - The Force Awakens (2015) BDRemux 1080p | Лицензия BOSS 34.46 GB
Фильмы (HD Rips | 720p, 1080p) Звёздные войны: Пробуждение силы / Star Wars: Episode VII - The Force Awakens (2015) BDRip 1080p | iTunes достали все 17.56 GB
Показать сообщения:    

Текущее время: Сегодня 15:55

Часовой пояс: GMT



Вы не можете начинать темы
Вы не можете отвечать на сообщения
Вы не можете редактировать свои сообщения
Вы не можете удалять свои сообщения
Вы не можете голосовать в опросах
Вы не можете прикреплять файлы к сообщениям
Вы не можете скачивать файлы