Пришествие. Встреча с пришельцами / The Visit. An Alien Encounter (Микаэль Мэдсен / Michael Madsen) [2015 г., Документальный, SATRip]

 
Автор Сообщение

skorpionN ®

Пол:

Стаж: 1 год 8 месяцев

Сообщений: 592



Награды: 4 (Подробнее)

Mega Seeder 1 (Количество: 1) Top Releaser 2 (Количество: 1) Mega Seeder 2 (Количество: 1)
Торрент-статистика

Создавать темы 22-Апр-2016 08:50

[Цитировать]

Пришествие. Встреча с пришельцами / The Visit. An Alien Encounter
Год выпуска: 2015
Страна: ания, Австрия, Ирландия, Финляндия, Норвегия, Швеция, Нидерланды, Indie Film as, Magic Hour Films ApS, Mouka Filmi Oy, Nikolaus Geyrhalter Filmproduktion, Venom Films
Жанр: Документальный
Продолжительность: 01:20:28
Перевод: Профессиональный (двухголосый)
Режиссер: Микаэль Мэдсен / Michael Madsen
Качество: SATRip
Формат: MKV
Видео кодек: H.264
Аудио кодек: AC3
Видео: 720x576 25fps ~1850 Kbps
Аудио: AC3 2ch, 48kHz, 192 kbps
Описание: С момента изобретения радио и телевидения человечество посылает сигналы в космос, чтобы сообщить другим цивилизациям о своем существовании. Фильм рассказывает о событии, которого никогда не было: первый контакт человечества с внеземным разумом. При помощи экспертов NASA, Организации Объединенных Наций и Агентства по связям с внеземными цивилизациями, датский режиссер Майкл Мэдсен конструирует завораживающий сценарий первого контакта с инопланетной жизнью, начинающийся с вопроса «Зачем вы здесь?» Ждет ли нас встреча с внеземным разумом? И как отреагирует человечество, если на Землю завтра приземлится инопланетный корабль? На эти вопросы попытался ответить режиссер Майкл Мэдсен в документальном фильме «Пришествие». «Мэдсен попытался показать это все без какой-либо графики, спецэффектов и фантазии, а именно научно-обоснованную реальность, что будет, если на нашу планету прилетят инопланетяне, как будет выглядеть планета, как мы отреагируем на это». В съемках задействованы сотрудники НАСА и ученые со всего мира. «Это картина, которая всегда балансирует на грани серьезного, там масса серьезных проблем. Мэдсен и его герои постоянно открывают для нас массу нового, но в то же время она все время балансирует на грани абсурдного юмора». Именно абсурд и необычный взгляд на проблему – это то, за что зрители по всему миру любят Мэдсена. «Каждый раз он берет довольно сложную тему и находит довольно неожиданное воплощение для нее

Дополнительная информация:

Сценарий: Микаэль Мэдсен / Michael Madsen
Продюсер: Лизе Ленсе-Мёллер, Carsten Aanonsen, Andrew Freedman, ...
Оператор: Хейки Фярм
Композитор: Карстен Фундаль
Монтаж: Нэйтан Наджент, Стефан Сундлёф
Бюджет фильма: €1 175 952
Премьера (мир): 25 января 2015
Премьера (РФ): 14 апреля 2016

Награды:

Camerimage 2015
Nominated - Golden Frog Feature Documentary Films Competition Heikki Färm
DocAviv Film Festival 2015
Nominated - Depth of Field Competition Michael Madsen
Hamptons International Film Festival 2015
Nominated - Golden Starfish Award Documentary Feature Michael Madsen
Jihlava International Documentary Film Festival 2015
Nominated - Silver Eye Award Best Feature Documentary Michael Madsen
Moscow International Film Festival 2015
Nominated - Silver St. George Best Film of the Documentary Competition Michael Madsen
Sundance Film Festival 2015
Nominated - Grand Jury Prize World Cinema - Documentary Michael Madsen

Скриншоты


MediaInfo:

Format : Matroska
Format version : Version 4 / Version 2
File size : 1.15 GiB
Duration : 1h 20mn
Overall bit rate mode : Variable
Overall bit rate : 2 044 Kbps
Encoded date : UTC 2016-04-22 08:30:31
Writing application : mkvmerge v7.3.0 ('Nouages') 64bit built on Oct 22 2014 18:53:34
Writing library : libebml v1.3.0 + libmatroska v1.4.1
DURATION : 01:20:28.040000000
NUMBER_OF_FRAMES : 120701
NUMBER_OF_BYTES : 1116590018
_STATISTICS_WRITING_APP : mkvmerge v7.3.0 ('Nouages') 64bit built on Oct 22 2014 18:53:34
_STATISTICS_WRITING_DATE_UTC : 2016-04-22 08:30:31
_STATISTICS_TAGS : BPS DURATION NUMBER_OF_FRAMES NUMBER_OF_BYTES
Video
ID : 1
Format : AVC
Format/Info : Advanced Video Codec
Format profile : High@L3.2
Format settings, CABAC : Yes
Format settings, ReFrames : 3 frames
Codec ID : V_MPEG4/ISO/AVC
Duration : 1h 20mn
Bit rate mode : Variable
Bit rate : 1 850 Kbps
Maximum bit rate : 20.1 Mbps
Width : 720 pixels
Height : 576 pixels
Display aspect ratio : 4:3
Original display aspect ratio : 4:3
Frame rate mode : Constant
Frame rate : 25.000 fps
Standard : NTSC
Color space : YUV
Chroma subsampling : 4:2:0
Bit depth : 8 bits
Scan type : Progressive
Bits/(Pixel*Frame) : 0.178
Stream size : 1.02 GiB (89%)
Writing library : x264 core 114
Encoding settings : cabac=1 / ref=3 / deblock=1:0:0 / analyse=0x3:0x113 / me=hex / subme=7 / psy=1 / psy_rd=1.00:0.00 / mixed_ref=1 / me_range=16 / chroma_me=1 / trellis=1 / 8x8dct=1 / cqm=2 / deadzone=21,11 / fast_pskip=1 / chroma_qp_offset=-4 / threads=6 / sliced_threads=0 / slices=1 / nr=0 / decimate=1 / interlaced=0 / constrained_intra=0 / bframes=3 / b_pyramid=0 / b_adapt=1 / b_bias=0 / direct=1 / weightb=1 / open_gop=0 / weightp=2 / keyint=250 / keyint_min=25 / scenecut=40 / intra_refresh=0 / rc_lookahead=40 / rc=2pass / mbtree=1 / bitrate=1850 / ratetol=1.0 / qcomp=0.60 / qpmin=5 / qpmax=69 / qpstep=4 / cplxblur=20.0 / qblur=0.5 / vbv_maxrate=20100 / vbv_bufsize=20086 / nal_hrd=vbr / ip_ratio=1.40 / aq=1:1.00
Default : Yes
Forced : No
Color primaries : BT.601 PAL
Transfer characteristics : BT.470 System B, BT.470 System G
Matrix coefficients : BT.601
Color range : Limited
Audio
ID : 2
Format : AC-3
Format/Info : Audio Coding 3
Mode extension : CM (complete main)
Format settings, Endianness : Big
Codec ID : A_AC3
Duration : 1h 20mn
Bit rate mode : Constant
Bit rate : 192 Kbps
Channel(s) : 2 channels
Channel positions : Front: L R
Sampling rate : 48.0 KHz
Bit depth : 16 bits
Compression mode : Lossy
Stream size : 111 MiB (9%)
Default : Yes
Forced : No
[Профиль] [ЛС]
Показать сообщения:    

Текущее время: Сегодня 11:00

Часовой пояс: GMT



Вы не можете начинать темы
Вы не можете отвечать на сообщения
Вы не можете редактировать свои сообщения
Вы не можете удалять свои сообщения
Вы не можете голосовать в опросах
Вы не можете прикреплять файлы к сообщениям
Вы не можете скачивать файлы