Пришельцы 3: Взятие Бастилии / Les Visiteurs: La Révolution (2016) BDRip 1080p | iTunes

 
Автор Сообщение

Russian Mafia ®

Пол:

Стаж: 1 год 8 месяцев

Сообщений: 4246



Награды: 10 (Подробнее)

Mega Seeder 3 (Количество: 1) Top Releaser 3 (Количество: 1) Mega Seeder 1 (Количество: 1)
Торрент-статистика

Создавать темы 14-Сен-2016 03:37

[Цитировать]

Информация о фильме
Название: Пришельцы 3: Взятие Бастилии
Оригинальное название: Les Visiteurs: La Révolution
Год выхода: 2016
Жанр: Комедия
Режиссер: Жан-Мари Пуаре
В ролях: Кристиан Клавье, Жан Рено, Франк Дюбоск, Карин Вьяр, Сильви Тестю, Мари-Анн Шазель, Эри Абиттан
О фильме:
Легендарные и любимые миллионами комедии «Пришельцы» и «Пришельцы 2: Коридоры времени» получили свое продолжение. Заключительная часть трилогии будет посвящена приключениям героев Жана Рено и Кристиана Клавье во времени, и на этот раз они попадут в одну из самых ярких эпох – время Великой Французской Революции. «Тот самый» качественный французский юмор, по которому скучали, блестящий актерский состав, пронизанный изящной иронией сценарий дают полное основание полагать, что современное прочтение культовых французских картин не оставит равнодушными ценителей жанра, поклонников легендарных актеров и всех любителей первоклассного европейского кино.

Страна: Франция
Студия: Canal+ [fr], Gaumont, The Czech Republic State Fund for Support and Development of Cinematography
Продолжительность: 01:49:29
Перевод: Дублированный | iTunes
Файл
Кодек: MPEG4 Video (H264)
Качество: BDRip 1080p | iTunes
Видео: 1920x808, 8497 Kbps, 24.000fps
Звук:
Аудио 1: AC3, 6 ch, 384 kbps, CBR - Русский
Аудио 2: DTS, 6 ch, 1509 kbps, CBR - Французский
Семпл

Mediainfo

Общее
Уникальный идентификатор : 208107011366454244980311840862328876300 (0x9C8FF3D5E8FB83E7A2E831AFA2E06D0C)
Полное имя : Засланцы_3.2016.BDRip.1080p.mkv
Формат : Matroska
Версия формата : Version 2
Размер файла : 7,95 Гбайт
Продолжительность : 1 ч. 49 м.
Общий поток : 10,4 Мбит/сек
Дата кодирования : UTC 2016-09-13 21:04:52
Программа кодирования : mkvmerge v4.0.0 ('The Stars were mine') сборка от Jun 6 2010 16:18:42
Библиотека кодирования : libebml v1.0.0 + libmatroska v1.0.0
Видео
Идентификатор : 1
Формат : AVC
Формат/Информация : Advanced Video Codec
Профиль формата : High@L4.1
Параметр CABAC формата : Да
Параметр ReFrames формата : 5 кадров
Идентификатор кодека : V_MPEG4/ISO/AVC
Продолжительность : 1 ч. 49 м.
Битрейт : 8497 Кбит/сек
Ширина : 1920 пикселей
Высота : 808 пикселей
Соотношение сторон : 2,40:1
Режим частоты кадров : Постоянный
Частота кадров : 24,000 кадра/сек
Цветовое пространство : YUV
Субдискретизация насыщенности : 4:2:0
Битовая глубина : 8 бит
Тип развёртки : Прогрессивная
Бит/(Пиксели*Кадры) : 0.228
Размер потока : 6,34 Гбайт (80%)
Библиотека кодирования : x264 core 148 r2705 3f5ed56
Настройки программы : cabac=1 / ref=5 / deblock=1:0:0 / analyse=0x3:0x113 / me=umh / subme=8 / psy=1 / psy_rd=1.00:0.00 / mixed_ref=1 / me_range=16 / chroma_me=1 / trellis=1 / 8x8dct=1 / cqm=0 / deadzone=21,11 / fast_pskip=1 / chroma_qp_offset=-2 / threads=12 / lookahead_threads=2 / sliced_threads=0 / nr=0 / decimate=1 / interlaced=0 / bluray_compat=0 / constrained_intra=0 / bframes=3 / b_pyramid=2 / b_adapt=2 / b_bias=0 / direct=3 / weightb=1 / open_gop=0 / weightp=2 / keyint=250 / keyint_min=24 / scenecut=40 / intra_refresh=0 / rc_lookahead=50 / rc=2pass / mbtree=1 / bitrate=8497 / ratetol=1.0 / qcomp=0.60 / qpmin=0 / qpmax=69 / qpstep=4 / cplxblur=20.0 / qblur=0.5 / ip_ratio=1.40 / aq=1:1.00
Язык : French
Default : Нет
Forced : Нет
Аудио #1
Идентификатор : 2
Формат : AC-3
Формат/Информация : Audio Coding 3
Расширение режима : CM (complete main)
Параметр Endianness формата : Big
Идентификатор кодека : A_AC3
Продолжительность : 1 ч. 49 м.
Вид битрейта : Постоянный
Битрейт : 384 Кбит/сек
Каналы : 6 каналов
Расположение каналов : Front: L C R, Side: L R, LFE
Частота : 48,0 КГц
Частота кадров : 31,250 кадров/сек (1536 spf)
Метод сжатия : С потерями
Размер потока : 301 Мбайт (4%)
Заголовок : DUB | iTunes
Язык : Russian
Default : Да
Forced : Да
Аудио #2
Идентификатор : 3
Формат : DTS
Формат/Информация : Digital Theater Systems
Режим : 16
Параметр Endianness формата : Big
Идентификатор кодека : A_DTS
Продолжительность : 1 ч. 49 м.
Вид битрейта : Постоянный
Битрейт : 1509 Кбит/сек
Каналы : 6 каналов
Расположение каналов : Front: L C R, Side: L R, LFE
Частота : 48,0 КГц
Частота кадров : 93,750 кадра/сек (512 spf)
Битовая глубина : 24 бит
Метод сжатия : С потерями
Задержка видео : 11 мс.
Размер потока : 1,15 Гбайт (15%)
Заголовок : French
Язык : French
Default : Нет
Forced : Нет
Меню
00:00:00.000 : en:00:00:00.000
00:11:30.208 : en:00:11:30.208
00:18:02.250 : en:00:18:02.250
00:27:02.792 : en:00:27:02.792
00:36:10.708 : en:00:36:10.708
00:40:20.875 : en:00:40:20.875
00:52:28.208 : en:00:52:28.208
00:57:19.208 : en:00:57:19.208
01:07:22.042 : en:01:07:22.042
01:23:56.667 : en:01:23:56.667
01:36:39.750 : en:01:36:39.750
01:44:40.542 : en:01:44:40.542

Скриншоты

[Профиль] [ЛС]
Показать сообщения:    

Текущее время: Сегодня 22:32

Часовой пояс: GMT



Вы не можете начинать темы
Вы не можете отвечать на сообщения
Вы не можете редактировать свои сообщения
Вы не можете удалять свои сообщения
Вы не можете голосовать в опросах
Вы не можете прикреплять файлы к сообщениям
Вы не можете скачивать файлы