Пришельцы 2: Коридоры времени / Les visiteurs 2: Les couloirs du temps (1998) HDTVRip 720p

 
Автор Сообщение

Russian Mafia ®

Пол:

Стаж: 1 год 8 месяцев

Сообщений: 4246



Награды: 10 (Подробнее)

Mega Seeder 5 (Количество: 1) Top Releaser 4 (Количество: 1) Mega Seeder 2 (Количество: 1)
Торрент-статистика

Создавать темы 14-Сен-2015 12:47

[Цитировать]

Информация о фильме
Название: Пришельцы 2 Коридоры времени
Оригинальное название: Les couloirs du temps: Les visiteurs 2
Год выхода: 1998
Жанр: Фантастика, фэнтези, комедия, семейный.
Режиссер: Жан-Мари Пуаре
В ролях: Кристиан Клавье,Жан Рено,Мюриэль Робин,Мари-Анн Шазель,Жан-Люк Карон,Патрик Бюржель,Эрик Аверлан,Армель,Пьер Виаль,Франк-Оливье Бонне.
О фильме:
Если Вы выпили волшебного снадобья и попали в средневековье не надейтесь на свои сотовый телефон и службу спасения: еще никому не удавалось вырваться из лап святой инквизиции. И вы не сможете вернуться обратно, ведь в вашем времени действует ваш двойник-наивный средневековый пройдоха Жакуй.
Ваша единственная надежда-доблестный граф Де Монмирай, который не может жениться, так как Жакуй похитил у его будущего шурина святые реликвии и спрятал их в нашем времени.
Теперь граф с помощью чар великого волшебника Эусебиуса должен восстановить ход времени, отправить предков в прошлое, а потомков в будущее, иначе коридоры времени не закроются, и произойдет вселенская катастрофа.

Страна: Франция
Продолжительность: 01:52:47
Перевод: Профессиональный (многоголосый закадровый) - Амальгама / Союз / DVD-Group
Cубтитры: русские, французские, английские
Формат субтитров: softsub (SRT)
Файл
Контейнер: MKV
Качество: HDTVRip 720p
Видео: 1280x720 (16:9), 25.000 fps, AVC, ~3500 kbps
Звук: 48.0 KHz, AC3, 6 ch, 448 Kbps--

M/I

General
Unique ID : 222746766245975729422409506933383532081 (0xA793777A7E6045CA9D7C36417CDA8E31)
Complete name : F:FILMSПришельцы 2_[Коридоры времени].(1998).HDTVRIP_720p.Open.Matte.[-=DoMiNo=-].mkv
Format : Matroska
Format version : Version 4 / Version 2
File size : 3.11 GiB
Duration : 1h 52mn
Overall bit rate : 3 950 Kbps
Movie name : Пришельцы 2_[Коридоры времени].(1998).HDTVRIP_720p.Open.Matte.[-=DoMiNo=-]
Encoded date : UTC 2015-08-18 13:28:33
Writing application : mkvmerge v8.3.0 ('Over the Horizon') 64bit
Writing library : libebml v1.3.1 + libmatroska v1.4.2
DURATION : 01:48:55.098000000
NUMBER_OF_FRAMES : 1463
NUMBER_OF_BYTES : 59870
_STATISTICS_WRITING_APP : mkvmerge v8.3.0 ('Over the Horizon') 64bit
_STATISTICS_WRITING_DATE_UT : 2015-08-18 13:28:33
_STATISTICS_TAGS : BPS DURATION NUMBER_OF_FRAMES NUMBER_OF_BYTES
Video
ID : 1
Format : AVC
Format/Info : Advanced Video Codec
Format profile : High@L4.1
Format settings, CABAC : Yes
Format settings, ReFrames : 9 frames
Codec ID : V_MPEG4/ISO/AVC
Duration : 1h 52mn
Bit rate : 3 500 Kbps
Width : 1 280 pixels
Height : 720 pixels
Display aspect ratio : 16:9
Frame rate mode : Constant
Frame rate : 25.000 fps
Color space : YUV
Chroma subsampling : 4:2:0
Bit depth : 8 bits
Scan type : Progressive
Bits/(Pixel*Frame) : 0.152
Stream size : 2.70 GiB (87%)
Writing library : x264 core 148 r2579M 73ae2d1
Encoding settings : cabac=1 / ref=9 / deblock=1:-2:-2 / analyse=0x3:0x133 / me=umh / subme=11 / psy=1 / psy_rd=1.00:0.20 / mixed_ref=1 / me_range=32 / chroma_me=1 / trellis=2 / 8x8dct=1 / cqm=0 / deadzone=21,11 / fast_pskip=0 / chroma_qp_offset=-3 / threads=6 / lookahead_threads=1 / sliced_threads=0 / nr=0 / decimate=1 / interlaced=0 / bluray_compat=0 / constrained_intra=0 / bframes=8 / b_pyramid=2 / b_adapt=2 / b_bias=0 / direct=3 / weightb=1 / open_gop=0 / weightp=2 / keyint=250 / keyint_min=25 / scenecut=40 / intra_refresh=0 / rc=2pass / mbtree=0 / bitrate=3500 / ratetol=1.0 / qcomp=0.60 / qpmin=0 / qpmax=69 / qpstep=4 / cplxblur=20.0 / qblur=0.5 / ip_ratio=1.40 / pb_ratio=1.30 / aq=1:1.00
Language : French
Default : Yes
Forced : No
Color range : Limited
Color primaries : BT.709
Transfer characteristics : BT.709
Matrix coefficients : BT.709
DURATION : 01:52:44.320000000
NUMBER_OF_FRAMES : 169108
NUMBER_OF_BYTES : 2959268808
_STATISTICS_WRITING_APP : mkvmerge v8.3.0 ('Over the Horizon') 64bit
_STATISTICS_WRITING_DATE_UT : 2015-08-18 13:28:33
_STATISTICS_TAGS : BPS DURATION NUMBER_OF_FRAMES NUMBER_OF_BYTES
Audio
ID : 2
Format : AC-3
Format/Info : Audio Coding 3
Mode extension : CM (complete main)
Format settings, Endianness : Big
Codec ID : A_AC3
Duration : 1h 52mn
Bit rate mode : Constant
Bit rate : 448 Kbps
Channel(s) : 6 channels
Channel positions : Front: L C R, Side: L R, LFE
Sampling rate : 48.0 KHz
Compression mode : Lossy
Stream size : 361 MiB (11%)
Title : Многоголосый закадровый | Амальгама / Союз / DVD-Group
Language : Russian
Default : Yes
Forced : No
DURATION : 01:52:47.776000000
NUMBER_OF_FRAMES : 211493
NUMBER_OF_BYTES : 378995456
_STATISTICS_WRITING_APP : mkvmerge v8.3.0 ('Over the Horizon') 64bit
_STATISTICS_WRITING_DATE_UT : 2015-08-18 13:28:33
_STATISTICS_TAGS : BPS DURATION NUMBER_OF_FRAMES NUMBER_OF_BYTES
Text #1
ID : 3
Format : UTF-8
Codec ID : S_TEXT/UTF8
Codec ID/Info : UTF-8 Plain Text
Language : Russian
Default : No
Forced : No
Text #2
ID : 4
Format : UTF-8
Codec ID : S_TEXT/UTF8
Codec ID/Info : UTF-8 Plain Text
Language : French
Default : No
Forced : No
Text #3
ID : 5
Format : UTF-8
Codec ID : S_TEXT/UTF8
Codec ID/Info : UTF-8 Plain Text
Language : English
Default : No
Forced : No
[Профиль] [ЛС]
Показать сообщения:    

Текущее время: Сегодня 22:33

Часовой пояс: GMT



Вы не можете начинать темы
Вы не можете отвечать на сообщения
Вы не можете редактировать свои сообщения
Вы не можете удалять свои сообщения
Вы не можете голосовать в опросах
Вы не можете прикреплять файлы к сообщениям
Вы не можете скачивать файлы