Пришельцы 2: Коридоры времени / Les couloirs du temps: Les visiteurs 2 / The Visitors II: The Corridors of Time (1998) DVDRip

 
Автор Сообщение

Russian Mafia ®

Пол:

Стаж: 1 год 8 месяцев

Сообщений: 4256



Награды: 10 (Подробнее)

Mega Seeder 4 (Количество: 1) Top Releaser 3 (Количество: 1) Top Releaser 5 (Количество: 1)
Торрент-статистика

Создавать темы 14-Сен-2015 12:45

[Цитировать]

Пришельцы 2: Коридоры времени / Les couloirs du temps: Les visiteurs 2 / The Visitors II: The Corridors of Time- Страна: США
Жанр: фантастика, фэнтези, комедия, семейный
Год выпуска: 1998
Продолжительность: 01:52:46
Перевод: Профессиональный (двухголосый, закадровый) ТНТ
Cубтитры: нет
Оригинальная аудиодорожка: нет
Режиссер: Жан-Мари Пуарэ / Jean-Marie Poire
В ролях: Кристиан Клавье, Жан Рено, Мюриэль Робен, Мари-Анн Шазель, Жан-Люк Карон, Патрик Бюржель, Эрик Аверлан, Армель, Пьер Виаль, Франк-Оливье Бонне ...
Описание: Если Вы выпили волшебного снадобья и попали в средневековье не надейтесь на свои сотовый телефон и службу спасения: еще никому не удавалось вырваться из лап святой инквизиции. И вы не сможете вернуться обратно, ведь в вашем времени действует ваш двойник-наивный средневековый пройдоха Жакуй. Ваша единственная надежда-доблестный граф Де Монмирай, который не может жениться, так как Жакуй похитил у его будущего шурина святые реликвии и спрятал их в нашем времени. Теперь граф с помощью чар великого волшебника Эусебиуса должен восстановить ход времени, отправить предков в прошлое, а потомков в будущее, иначе коридоры времени не закроются, и произойдет вселенская катастрофа.

Качество видео: DVDRip
Формат видео: AVI
Видео кодек: XviD
Аудио кодек: MP3
Видео: 624x272 (2.29:1), 25 fps, XviD build 50 ~794 kbps avg, 0.19 bit/pixel
Аудио: 48 kHz, MPEG Layer 3, 2 ch, ~128.00 kbps avg-

Скриншоты

MI

D:Les_visiteurs_2_DVDRip.745mb.by_dexter_lex.avi
General
Complete name : D:Les_visiteurs_2_DVDRip.745mb.by_dexter_lex.avi
Format : AVI
Format/Info : Audio Video Interleave
File size : 752 MiB
Duration : 1h 52mn
Overall bit rate : 932 Kbps
Writing application : VirtualDubMod 1.5.10.3 | www.virtualdub-fr.org || (build 2550/release)
Writing library : VirtualDubMod build 2550/release
Video #0
ID : 0
Format : MPEG-4 Visual
Format profile : Advanced Simple@L5
Format settings, BVOP : 1
Format settings, QPel : No
Format settings, GMC : No warppoints
Format settings, Matrix : Custom
Codec ID : XVID
Codec ID/Hint : XviD
Duration : 1h 52mn
Bit rate : 794 Kbps
Width : 624 pixels
Height : 272 pixels
Display aspect ratio : 2.25:1
Frame rate : 25.000 fps
Color space : YUV
Chroma subsampling : 4:2:0
Bit depth : 8 bits
Scan type : Progressive
Compression mode : Lossy
Bits/(Pixel*Frame) : 0.187
Stream size : 641 MiB (85%)
Writing library : XviD 1.2.1 (UTC 2008-12-04)
Audio #1
ID : 1
Format : MPEG Audio
Format version : Version 1
Format profile : Layer 3
Codec ID : 55
Codec ID/Hint : MP3
Duration : 1h 52mn
Bit rate mode : Constant
Bit rate : 128 Kbps
Channel(s) : 2 channels
Sampling rate : 48.0 KHz
Compression mode : Lossy
Stream size : 103 MiB (14%)
Alignment : Aligned on interleaves
Interleave, duration : 40 ms (1.00 video frame)
Interleave, preload duration : 504 ms
Writing library : LAME3.99r
Encoding settings : -m s -V 4 -q 2 -lowpass 17 -b 128
[Профиль] [ЛС]
Показать сообщения:    

Текущее время: Сегодня 22:08

Часовой пояс: GMT



Вы не можете начинать темы
Вы не можете отвечать на сообщения
Вы не можете редактировать свои сообщения
Вы не можете удалять свои сообщения
Вы не можете голосовать в опросах
Вы не можете прикреплять файлы к сообщениям
Вы не можете скачивать файлы