Пришельцы на чердаке / Aliens in the Attic (Джон Шульц / John Schultz) [2009, США, Фэнтези, приключения, семейный, BDRip-AVC] Dub + Sub Rus, Eng + Original Eng

 
Автор Сообщение

reversefile ®

Пол:

Стаж: 4 года 5 месяцев

Сообщений: 842

Откуда: ReverseFile.org



Награды: Нет

Торрент-статистика

Создавать темы 13-Авг-2014 10:02

[Цитировать]

Пришельцы на чердаке / Aliens in the Attic«Пришельцы против Пирсонов»- Страна: США
Жанр: Фэнтези, приключения, семейный
Год выпуска: 2009
Продолжительность: 01:25:48
Перевод: Профессиональный (дублированный) Blu-ray CEE
Cубтитры: Rus, Eng
Оригинальная аудиодорожка: английский
Режиссер: Джон Шульц / John Schultz
В ролях: Картер Дженкинс, Остин Роберт Батлер, Эшли Боетчер, Эшли Тиздейл, Генри Янг (II), Ригэн Янг, Дорис Робертс, Роберт Хоффман, Кевин Нилон, Джиллиан Вигман, Энди Рихтер, Тим Медоуз, Мэйлез Джо, Меган Паркер, Мэгги Ванденберг, Даг МакМиллан-ОписаниеСемейство Пирсонов переезжает на летние каникулы в свой загородный домик в штате Мэн, не подозревая о появлении на чердаке новых и очень необычных соседей. Нет, это не летучие мыши, не бомжи и уж точно не Кентервильское привидение. Маленький уголок рая посреди зеленых полей Новой Англии был выбран в качестве базы для вторжения на нашу родную Землю коварными пришельцами из космоса. Пришелец-зирконианец по имени Спаркс (ему всего лишь 204 года, он еще совсем ребенок) становится другом юных Пирсонов и предлагает им сделать выбор: отправиться в космос или быть уничтоженными вместе со всеми остальными обитателями планеты. После недолгих раздумий у Пирсонов появляется третья альтернатива, быстро меняющая планы зирконианцев.-Сэмпл

IMDb: 5.40 (13 664)
Качество видео: BDRip-AVC Blu-ray 1080p HDCLUB
Формат видео: MKV
Видео: AVC 1690 Kbps 944 x 510 (1.851) 23.976 fps
Аудио: AC-3 384 Kbps 6 channels, 48.0 KHz Rus DUB Blu-ray CEE
Аудио 2: AC-3 384 Kbps 6 channels, 48.0 KHz Eng
Формат субтитров: softsub (SRT)

Сравнение

http://screenshotcomparison.com/comparison/86743/picture:3 с этим релизом
небольшой перекроп (по верт. и гор.)
+ Original + Sub

B.E.S.T.H.U.B.

Format : Matroska
Format version : Version 1
File size : 1.43 GiB
Duration : 1h 25mn
Overall bit rate : 2 389 Kbps
Encoded date : UTC 2009-10-18 20:45:26
Writing application : mkvmerge v2.4.0 ('Fumbling Towards Ecstasy') built on Oct 11 2008 20:13:15
Writing library : libebml v0.7.7 + libmatroska v0.8.1
Video
ID : 1
Format : AVC
Format/Info : Advanced Video Codec
Format profile : Main@L4.1
Format settings, CABAC : Yes
Format settings, ReFrames : 3 frames
Codec ID : V_MPEG4/ISO/AVC
Duration : 1h 25mn
Nominal bit rate : 2 160 Kbps
Width : 1 040 pixels
Height : 560 pixels
Display aspect ratio : 1.85:1
Frame rate mode : Constant
Frame rate : 23.976 fps
Color space : YUV
Chroma subsampling : 4:2:0
Bit depth : 8 bits
Scan type : Progressive
Bits/(Pixel*Frame) : 0.155
Writing library : x264 core 65 r999kMod cc51047
Encoding settings : cabac=1 / ref=3 / deblock=1:0:0 / analyse=0x1:0 / me=dia / subme=1 / psy_rd=0.0:0.0 / mixed_ref=1 / me_range=16 / chroma_me=1 / trellis=0 / 8x8dct=0 / cqm=0 / deadzone=21,11 / chroma_qp_offset=0 / threads=4 / thread_queue=4 / nr=0 / decimate=1 / mbaff=0 / bframes=3 / b_pyramid=1 / b_adapt=1 / b_bias=0 / direct=3 / wpredb=0 / keyint=250 / keyint_min=25 / scenecut=40(pre) / rc=2pass / bitrate=2160 / ratetol=1.0 / qcomp=0.60 / qpmin=10 / qpmax=51 / qpstep=4 / cplxblur=20.0 / qblur=0.5 / ip_ratio=1.40 / pb_ratio=1.30 / aq=1:1.00
Default : Yes
Forced : No
Audio
ID : 2
Format : AAC
Format/Info : Advanced Audio Codec
Format profile : LC
Codec ID : A_AAC
Duration : 1h 25mn
Channel(s) : 6 channels
Channel positions : Front: L C R, Side: L R, LFE
Sampling rate : 48.0 KHz
Compression mode : Lossy
Default : Yes
Forced : No

MediaInfo

Format : Matroska
Format version : Version 4 / Version 2
File size : 1.47 GiB
Duration : 1h 25mn
Overall bit rate : 2 458 Kbps
Encoded date : UTC 2014-08-05 22:52:10
Writing application : mkvmerge v6.7.0 ('Back to the Ground') 32bit built on Jan 8 2014 15:03:17
Writing library : libebml v1.3.0 + libmatroska v1.4.1
Video
ID : 1
Format : AVC
Format/Info : Advanced Video Codec
Format profile : High@L4.1
Format settings, CABAC : Yes
Format settings, ReFrames : 12 frames
Codec ID : V_MPEG4/ISO/AVC
Duration : 1h 25mn
Bit rate : 1 690 Kbps
Width : 944 pixels
Height : 510 pixels
Display aspect ratio : 1.85:1
Frame rate mode : Constant
Frame rate : 23.976 fps
Color space : YUV
Chroma subsampling : 4:2:0
Bit depth : 8 bits
Scan type : Progressive
Bits/(Pixel*Frame) : 0.146
Stream size : 1 007 MiB (67%)
Writing library : x264 core 142 r2453 ea0ca51
Encoding settings : cabac=1 / ref=12 / deblock=1:-2:-1 / analyse=0x3:0x133 / me=umh / subme=11 / psy=1 / psy_rd=1.00:0.05 / mixed_ref=1 / me_range=32 / chroma_me=1 / trellis=2 / 8x8dct=1 / cqm=0 / deadzone=21,11 / fast_pskip=0 / chroma_qp_offset=-3 / threads=12 / lookahead_threads=2 / sliced_threads=0 / nr=0 / decimate=1 / interlaced=0 / bluray_compat=0 / constrained_intra=0 / bframes=8 / b_pyramid=2 / b_adapt=2 / b_bias=0 / direct=3 / weightb=1 / open_gop=0 / weightp=2 / keyint=250 / keyint_min=23 / scenecut=40 / intra_refresh=0 / rc_lookahead=60 / rc=2pass / mbtree=1 / bitrate=1690 / ratetol=1.0 / qcomp=0.60 / qpmin=0 / qpmax=69 / qpstep=4 / cplxblur=20.0 / qblur=0.5 / ip_ratio=1.40 / aq=1:1.00
Language : English
Default : Yes
Forced : No
Audio #1
ID : 2
Format : AC-3
Format/Info : Audio Coding 3
Mode extension : CM (complete main)
Format settings, Endianness : Big
Codec ID : A_AC3
Duration : 1h 25mn
Bit rate mode : Constant
Bit rate : 384 Kbps
Channel(s) : 6 channels
Channel positions : Front: L C R, Side: L R, LFE
Sampling rate : 48.0 KHz
Bit depth : 16 bits
Compression mode : Lossy
Stream size : 236 MiB (16%)
Title : Dub
Language : Russian
Default : Yes
Forced : No
Audio #2
ID : 3
Format : AC-3
Format/Info : Audio Coding 3
Mode extension : CM (complete main)
Format settings, Endianness : Big
Codec ID : A_AC3
Duration : 1h 25mn
Bit rate mode : Constant
Bit rate : 384 Kbps
Channel(s) : 6 channels
Channel positions : Front: L C R, Side: L R, LFE
Sampling rate : 48.0 KHz
Bit depth : 16 bits
Compression mode : Lossy
Stream size : 236 MiB (16%)
Title : Original
Language : English
Default : No
Forced : No
Text #1
ID : 4
Format : UTF-8
Codec ID : S_TEXT/UTF8
Codec ID/Info : UTF-8 Plain Text
Language : Russian
Default : No
Forced : No
Text #2
ID : 5
Format : UTF-8
Codec ID : S_TEXT/UTF8
Codec ID/Info : UTF-8 Plain Text
Language : English
Default : No
Forced : No
Menu
00:00:00.000 : en:00:00:00.000
00:03:27.374 : en:00:03:27.374
00:08:13.952 : en:00:08:13.952
00:10:03.228 : en:00:10:03.228
00:13:24.053 : en:00:13:24.053
00:15:59.417 : en:00:15:59.417
00:18:43.331 : en:00:18:43.331
00:20:41.657 : en:00:20:41.657
00:22:52.955 : en:00:22:52.955
00:26:38.305 : en:00:26:38.305
00:30:15.605 : en:00:30:15.605
00:33:06.735 : en:00:33:06.735
00:35:30.128 : en:00:35:30.128
00:42:21.789 : en:00:42:21.789
00:46:53.602 : en:00:46:53.602
00:49:34.138 : en:00:49:34.138
00:54:31.143 : en:00:54:31.143
00:59:57.844 : en:00:59:57.844
01:03:50.118 : en:01:03:50.118
01:08:24.934 : en:01:08:24.934
01:13:25.610 : en:01:13:25.610
01:17:59.508 : en:01:17:59.508
01:19:16.710 : en:01:19:16.710
01:20:33.328 : en:01:20:33.328

Скриншоты

[Профиль] [ЛС]

Создавать темы 06-Авг-2015 23:19 (спустя 11 месяцев 24 дня)

Топик был перенесен из форума Фильмы до 2014 года в форум Фильмы до 2012 года
sergej644
 

Создавать темы 12-Июн-2016 08:13 (спустя 1 год 9 месяцев)

Топик был перенесен из форума Фильмы 2011 года в форум Фильмы 2009 года
Russian Mafia
 
Показать сообщения:    

Текущее время: Сегодня 08:57

Часовой пояс: GMT



Вы не можете начинать темы
Вы не можете отвечать на сообщения
Вы не можете редактировать свои сообщения
Вы не можете удалять свои сообщения
Вы не можете голосовать в опросах
Вы не можете прикреплять файлы к сообщениям
Вы не можете скачивать файлы